TORRENTS45.XYZ

Скачать The Gary Burton Quartet With Eberhard Weber - Passengers (1977) 1988, ECM [FLAC|Lossless|tracks + .cue] <Post Bop, Contemporary Jazz>


The Gary Burton Quartet With Eberhard Weber - Passengers (1977) 1988, ECM
Жанр: Post Bop, Contemporary Jazz
Издание: ECM - 835 016-2
Продолжительность: 00:40:52

Кодек: FLAC (tracks+.cue)
Битрейт: Lossless
Источник (релизер): andrew_kamsky
Страна-производитель диска: Germany
Наличие сканов в содержимом раздачи: да

Треклист:

01. Sea Journey [9:19]
02. Nacada [4:15]
03. The Whopper [5:33]
04. B & G (Midwestern Nights Dream) [8:27]
05. Yellow Fields [7:03]
06. Claude and Betty [6:16]

Отчёт EAC:


Exact Audio Copy V0.99 prebeta 5 from 4. May 2009

EAC extraction logfile from 3. November 2009, 6:25

Gary Burton Quartet with Eberhard Weber / Passengers

Used drive : Optiarc DVD RW AD-7170S Adapter: 4 ID: 0

Read mode : Secure
Utilize accurate stream : Yes
Defeat audio cache : Yes
Make use of C2 pointers : No

Read offset correction : 48
Overread into Lead-In and Lead-Out : No
Fill up missing offset samples with silence : Yes
Delete leading and trailing silent blocks : No
Null samples used in CRC calculations : Yes
Used interface : Native Win32 interface for Win NT & 2000
Gap handling : Appended to previous track

Used output format : User Defined Encoder
Selected bitrate : 128 kBit/s
Quality : High
Add ID3 tag : No
Command line compressor : C:\Program Files (x86)\Exact Audio Copy\Flac\flac.exe
Additional command line options : -8 -V -T "ARTIST=%a" -T "TITLE=%t" -T "ALBUM=%g" -T "DATE=%y" -T "TRACKNUMBER=%n" -T "TOTALTRACKS=%x" -T "GENRE=%m" -T "ALBUM ARTIST=%v" -T "ALBUMARTIST=%v" -T "COMMENT=EAC V0.99 prebeta 5, Secure Mode, Test & Copy, Accurat

TOC of the extracted CD

Track | Start | Length | Start sector | End sector
---------------------------------------------------------
1 | 0:00.33 | 9:18.50 | 33 | 41932
2 | 9:19.08 | 4:15.25 | 41933 | 61082
3 | 13:34.33 | 5:32.50 | 61083 | 86032
4 | 19:07.08 | 8:26.62 | 86033 | 124044
5 | 27:33.70 | 7:02.38 | 124045 | 155732
6 | 34:36.33 | 6:16.00 | 155733 | 183932

Track 1

Filename C:\EACrips\Gary Burton Quartet with Eberhard Weber - 1977 - Passengers\01 - Sea Journey.wav

Pre-gap length 0:00:02.44

Peak level 69.1 %
Track quality 100.0 %
Test CRC 0C5FC999
Copy CRC 0C5FC999
Accurately ripped (confidence 2) [B7D0C511]
Copy OK

Track 2

Filename C:\EACrips\Gary Burton Quartet with Eberhard Weber - 1977 - Passengers\02 - Nacada.wav

Pre-gap length 0:00:03.93

Peak level 50.3 %
Track quality 99.9 %
Test CRC A20ED4D7
Copy CRC A20ED4D7
Accurately ripped (confidence 2) [2E529946]
Copy OK

Track 3

Filename C:\EACrips\Gary Burton Quartet with Eberhard Weber - 1977 - Passengers\03 - The Whopper.wav

Pre-gap length 0:00:03.77

Peak level 71.6 %
Track quality 100.0 %
Test CRC 4279954F
Copy CRC 4279954F
Accurately ripped (confidence 2) [42D07906]
Copy OK

Track 4

Filename C:\EACrips\Gary Burton Quartet with Eberhard Weber - 1977 - Passengers\04 - B & G (Midwestern Nights Dream).wav

Pre-gap length 0:00:04.13

Peak level 66.9 %
Track quality 100.0 %
Test CRC 4E7B66A7
Copy CRC 4E7B66A7
Accurately ripped (confidence 2) [34243BC9]
Copy OK

Track 5

Filename C:\EACrips\Gary Burton Quartet with Eberhard Weber - 1977 - Passengers\05 - Yellow Fields.wav

Pre-gap length 0:00:03.86

Peak level 74.9 %
Track quality 100.0 %
Test CRC D557F518
Copy CRC D557F518
Accurately ripped (confidence 2) [9137025C]
Copy OK

Track 6

Filename C:\EACrips\Gary Burton Quartet with Eberhard Weber - 1977 - Passengers\06 - Claude and Betty.wav

Pre-gap length 0:00:03.84

Peak level 68.7 %
Track quality 100.0 %
Test CRC 032340CB
Copy CRC 032340CB
Accurately ripped (confidence 2) [F9CCC1A0]
Copy OK

All tracks accurately ripped

No errors occurred

End of status report

Cue Sheet (.cue):


REM GENRE Jazz
REM DATE 1977
REM DISCID 4E099406
REM COMMENT "ExactAudioCopy v0.99pb5"
CATALOG 0042283501621
PERFORMER "Gary Burton Quartet with Eberhard Weber"
TITLE "Passengers"
FILE "01 - Sea Journey.wav" WAVE
TRACK 01 AUDIO
TITLE "Sea Journey"
PERFORMER "Gary Burton Quartet with Eberhard Weber"
ISRC DEB337609201
PREGAP 00:00:33
INDEX 01 00:00:00
TRACK 02 AUDIO
TITLE "Nacada"
PERFORMER "Gary Burton Quartet with Eberhard Weber"
ISRC DEB337609202
INDEX 00 09:14:55
FILE "02 - Nacada.wav" WAVE
INDEX 01 00:00:00
TRACK 03 AUDIO
TITLE "The Whopper"
PERFORMER "Gary Burton Quartet with Eberhard Weber"
ISRC DEB337609203
INDEX 00 04:11:42
FILE "03 - The Whopper.wav" WAVE
INDEX 01 00:00:00
TRACK 04 AUDIO
TITLE "B & G (Midwestern Nights Dream)"
PERFORMER "Gary Burton Quartet with Eberhard Weber"
ISRC DEB337609204
INDEX 00 05:28:40
FILE "04 - B & G (Midwestern Nights Dream).wav" WAVE
INDEX 01 00:00:00
TRACK 05 AUDIO
TITLE "Yellow Fields"
PERFORMER "Gary Burton Quartet with Eberhard Weber"
ISRC DEB337609205
INDEX 00 08:22:72
FILE "05 - Yellow Fields.wav" WAVE
INDEX 01 00:00:00
TRACK 06 AUDIO
TITLE "Claude and Betty"
PERFORMER "Gary Burton Quartet with Eberhard Weber"
ISRC DEB337609206
INDEX 00 06:58:50
FILE "06 - Claude and Betty.wav" WAVE
INDEX 01 00:00:00

Отчёт auCDtect Task manager:


-----------------------

DON'T MODIFY THIS FILE

-----------------------

PERFORMER: auCDtect Task Manager, ver. 1.6.0 RC1 build 1.6.0.1
Copyright (c) 2008-2010 y-soft. All rights reserved
http://y-soft.org

ANALYZER: auCDtect: CD records authenticity detector, version 0.8.2
Copyright (c) 2004 Oleg Berngardt. All rights reserved.
Copyright (c) 2004 Alexander Djourik. All rights reserved.

FILE: 06 - Claude and Betty.flac
Size: 28516596 Hash: 345533268CCEF0B4A9D093A66001D91F Accuracy: -m0
Conclusion: CDDA 99%
Signature: 4ADE62822A6BF70CB45F98975581FF42A699661E
FILE: 05 - Yellow Fields.flac
Size: 34895391 Hash: 72AACB4B94200094079B277C72EC85A5 Accuracy: -m0
Conclusion: CDDA 99%
Signature: 41C4717E41233BCC8C11AAFECAEF8A8EEB184C56
FILE: 04 - B & G (Midwestern Nights Dream).flac
Size: 41799470 Hash: 8AA29D106A438DC96CFACA554531A0ED Accuracy: -m0
Conclusion: CDDA 99%
Signature: 8CD7580D7FF956B9513E687BB96D534ADCBC2762
FILE: 03 - The Whopper.flac
Size: 30367467 Hash: AA775D09207EE6CC852B151F66B3A830 Accuracy: -m0
Conclusion: CDDA 99%
Signature: 300DF32E0DF60ECCEAEBB7A1F752FA7EF521BB2C
FILE: 02 - Nacada.flac
Size: 14901337 Hash: 02B53F48F455439AEAEF8B28DE98C994 Accuracy: -m0
Conclusion: CDDA 100%
Signature: 2AFB5D3DE341938B3B780CC3D2F47AB8245C69F8
FILE: 01 - Sea Journey.flac
Size: 51259622 Hash: A3469A9507BEF429FF65D95AE9E73D92 Accuracy: -m0
Conclusion: CDDA 100%
Signature: B2464A0C45A45AF6537B7640B4208A0E4EA27BDA

Состав

Gary Burton - vibraharp
Pat Metheny - guitar
Steve Swallow - bass guitar
Dan Gottlieb - drums
Eberhard Weber - bass

Recorded November 1976 at Talent Studio, Oslo
Детали торрента:
Название:The Gary Burton Quartet With Eberhard Weber - Passengers (1977) 1988, ECM [FLAC|Lossless|tracks + .cue] <Post Bop, Contemporary Jazz>
Дата добавления:22 Авг 2018 08:24:28
Размер:195 MB
Раздают:1
Качают:0
Форум:Jazz (Lossless)

All rights reserved © 2015-2019