TORRENTS45.XYZ

Скачать Небоскреб / Skyscraper (2018) WEBRip [H.264/720p-LQ] [EN / KOR Sub]


Небоскреб / Skyscraper (2018) WEBRip [H.264/720p-LQ] [EN / KOR Sub]
Производство: США, Legendary Entertainment, Flynn Picture Company, Seven Bucks Productions
Жанр: Боевик, Триллер

Режиссер: Роусон Маршалл Тёрбер
Продюсер: Бо Флинн, Дэни Гарсиа, Хирам Гарсиа, ...
Актеры: Дуэйн Джонсон, Нив Кэмпбелл, Чин Хань, Роланд Мюллер, Ноа Тейлор, Байрон Манн, Пабло Шрайбер, МакКенна Робертс, Ной Коттрелл, Ханна Куинливан ...

Описание:
Самый высокий и технологичный небоскрёб в мире становится центром огненной катастрофы. Только бывший агент ФБР, а теперь эксперт по безопасности Уилл Сойер может спасти вертикальный город под небесами. Когда нельзя доверять никому, а жизнь семьи в опасности, каждая секунда на счету.


Возраст: 16+ (зрителям, достигшим 16 лет)
Рейтинг MPAA: PG-13 (детям до 13 лет просмотр нежелателен)
Премьера (мир): 11 июля 2018
Премьера (РФ): 12 июля 2018, «UPI»


Продолжительность: 01:42:26
Качество видео: WEBRip 720p
Перевод: Отсутствует
Язык озвучки: Английский
Субтитры: Корейские (вшитые, не отключаемые)

Видео: AVC, 1280x536 (2.35:1), 30.000 fps, 3 352 Kbps (0.163 bit/pixel)
Аудио: AAC LC, 48.0 KHz, 2 ch, 256 kb/s (English)

Mediainfo:

General
Complete name : Skyscaper.2018.WEBRip.720p.x264.AAC2.0.mkv
Format : Matroska
Format version : Version 4 / Version 2
File size : 2.58 GiB
Duration : 1 h 42 min
Overall bit rate : 3 602 kb/s
Encoded date : UTC 2018-08-10 15:24:17
Writing application : mkvmerge v25.0.0 ('Prog Noir') 64-bit
Writing library : libebml v1.3.6 + libmatroska v1.4.9

Video
ID : 1
Format : AVC
Format/Info : Advanced Video Codec
Format profile : High@L4.1
Format settings : CABAC / 4 Ref Frames
Format settings, CABAC : Yes
Format settings, ReFrames : 4 frames
Codec ID : V_MPEG4/ISO/AVC
Duration : 1 h 42 min
Bit rate : 3 352 kb/s
Width : 1 280 pixels
Height : 536 pixels
Display aspect ratio : 2.40:1
Frame rate mode : Constant
Frame rate : 30.000 FPS
Color space : YUV
Chroma subsampling : 4:2:0
Bit depth : 8 bits
Scan type : Progressive
Bits/(Pixel*Frame) : 0.163
Stream size : 2.39 GiB (93%)
Writing library : x264 core 142 r2479 dd79a61
Encoding settings : cabac=1 / ref=1 / deblock=1:0:0 / analyse=0x3:0x113 / me=hex / subme=2 / psy=1 / psy_rd=1.00:0.00 / mixed_ref=0 / me_range=16 / chroma_me=1 / trellis=0 / 8x8dct=1 / cqm=0 / deadzone=21,11 / fast_pskip=1 / chroma_qp_offset=0 / threads=18 / lookahead_threads=4 / sliced_threads=0 / nr=0 / decimate=1 / interlaced=0 / bluray_compat=0 / constrained_intra=0 / bframes=3 / b_pyramid=2 / b_adapt=1 / b_bias=0 / direct=1 / weightb=1 / open_gop=0 / weightp=1 / keyint=300 / keyint_min=30 / scenecut=40 / intra_refresh=0 / rc_lookahead=10 / rc=abr / mbtree=1 / bitrate=3352 / ratetol=1.0 / qcomp=0.60 / qpmin=0 / qpmax=69 / qpstep=4 / vbv_maxrate=62500 / vbv_bufsize=78125 / nal_hrd=none / filler=0 / ip_ratio=1.40 / aq=1:1.00
Language : English
Default : Yes
Forced : No
Color range : Limited
Color primaries : BT.709
Transfer characteristics : BT.709
Matrix coefficients : BT.709

Audio
ID : 2
Format : AAC
Format/Info : Advanced Audio Codec
Format profile : LC
Codec ID : A_AAC-2
Duration : 1 h 42 min
Bit rate : 256 kb/s
Channel(s) : 2 channels
Channel positions : Front: L R
Sampling rate : 48.0 kHz
Frame rate : 46.875 FPS (1024 SPF)
Compression mode : Lossy
Delay relative to video : 152 ms
Stream size : 188 MiB (7%)
Language : English
Default : Yes
Forced : No

Знаете ли вы, что...

Первый некомедийный фильм Роусона Маршалла Тёрбера.

На роль режиссёра фильма в то или иное время планировали пригласить Брэда Пейтона и Роланда Эммериха.
Скриншоты:

Дополнительные скриншоты:




Все одноименные релизы в Клубе

Смотреть Online

http://37.220.36.15/video/abcb0ed1460b07a3/iframe
Детали торрента:
Название:Небоскреб / Skyscraper (2018) WEBRip [H.264/720p-LQ] [EN / KOR Sub]
Дата добавления:10 Авг 2018 20:18:43
Размер:2,58 GB
Раздают:2
Качают:0
Форум:Фильмы в оригинале

All rights reserved © 2015-2018