TORRENTS45.XYZ

Скачать In Loving Memory - Negation Of Life (2011) [FLAC|Lossless|image + .cue] <Melodic Death Metal,Doom Metal>


In Loving Memory - Negation Of Life (2011)
Жанр: Melodic Death Metal,Doom Metal
Издание: BadMoonMan Music - BMM.048-II
Продолжительность: 01:03:34

Кодек: FLAC
Битрейт: Lossless
Тип рипа: image + .cue

Треклист:
01.Even A God Can Die
02.Skilled Nihilism
03.Adversus Pugna Tenebras
04.Negation Of Life
05.November Cries
06.Shimmering Divinity
07.Through A Raindrop
08.Celestial
09.Nulla Religio, Solum Veritas

Отчёт EAC:


Exact Audio Copy V1.0 beta 3 from 29. August 2011

EAC extraction logfile from 26. June 2013, 18:46

In Loving Memory / Negation Of Life

Used drive : ASUS DRW-24B3LT Adapter: 3 ID: 1

Read mode : Secure
Utilize accurate stream : Yes
Defeat audio cache : Yes
Make use of C2 pointers : No

Read offset correction : 6
Overread into Lead-In and Lead-Out : No
Fill up missing offset samples with silence : Yes
Delete leading and trailing silent blocks : No
Null samples used in CRC calculations : Yes
Used interface : Native Win32 interface for Win NT & 2000

Used output format : User Defined Encoder
Selected bitrate : 1024 kBit/s
Quality : High
Add ID3 tag : No
Command line compressor : C:\Program Files (x86)\Exact Audio Copy\FLAC\FLAC.EXE
Additional command line options : -6 -V -T "ARTIST=%artist%" -T "TITLE=%title%" -T "ALBUM=%albumtitle%" -T "DATE=%year%" -T "TRACKNUMBER=%tracknr%" -T "GENRE=%genre%" -T "COMMENT=%comment%" -T "BAND=%albuminterpret%" -T "ALBUMARTIST=%albuminterpret%" -T "COMPOSER=%composer%" %haslyrics%--tag-from-file=LYRICS="%lyricsfile%"%haslyrics% -T "DISCNUMBER=%cdnumber%" -T "TOTALDISCS=%totalcds%" -T "TOTALTRACKS=%numtracks%" %hascover%--picture="%coverfile%"%hascover% %source% -o %dest%

TOC of the extracted CD

Track | Start | Length | Start sector | End sector
---------------------------------------------------------
1 | 0:00.00 | 6:42.40 | 0 | 30189
2 | 6:42.40 | 5:23.16 | 30190 | 54430
3 | 12:05.56 | 6:42.63 | 54431 | 84643
4 | 18:48.44 | 8:12.05 | 84644 | 121548
5 | 27:00.49 | 6:45.17 | 121549 | 151940
6 | 33:45.66 | 7:07.53 | 151941 | 184018
7 | 40:53.44 | 8:08.44 | 184019 | 220662
8 | 49:02.13 | 6:45.59 | 220663 | 251096
9 | 55:47.72 | 7:45.38 | 251097 | 286009

Range status and errors

Selected range

Filename C:\MY_MUSIC\MMM\In Loving Memory 2011 Negation Of Life.wav

Peak level 100.0 %
Extraction speed 8.7 X
Range quality 100.0 %
Copy CRC A833DD92
Copy OK

No errors occurred

AccurateRip summary

Track 1 not present in database
Track 2 not present in database
Track 3 not present in database
Track 4 not present in database
Track 5 not present in database
Track 6 not present in database
Track 7 not present in database
Track 8 not present in database
Track 9 not present in database

None of the tracks are present in the AccurateRip database

End of status report

==== Log checksum BD1AA9719CE10A06F6F9D9B0C5391BD20A03305AEC8C520FCEAF1E2E52A0FE18 ====

Cue Sheet (.cue):


REM GENRE "Melodic Death Metal"
REM DATE 2011
REM DISCID 6B0EE509
REM COMMENT "ExactAudioCopy v1.0b3"
PERFORMER "In Loving Memory"
TITLE "Negation Of Life"
FILE "In Loving Memory 2011 Negation Of Life.flac" WAVE
TRACK 01 AUDIO
TITLE "Even A God Can Die"
PERFORMER "In Loving Memory"
INDEX 01 00:00:00
TRACK 02 AUDIO
TITLE "Skilled Nihilism"
PERFORMER "In Loving Memory"
INDEX 01 06:42:40
TRACK 03 AUDIO
TITLE "Adversus Pugna Tenebras"
PERFORMER "In Loving Memory"
INDEX 01 12:05:56
TRACK 04 AUDIO
TITLE "Negation Of Life"
PERFORMER "In Loving Memory"
INDEX 01 18:48:44
TRACK 05 AUDIO
TITLE "November Cries"
PERFORMER "In Loving Memory"
INDEX 01 27:00:49
TRACK 06 AUDIO
TITLE "Shimmering Divinity"
PERFORMER "In Loving Memory"
INDEX 01 33:45:66
TRACK 07 AUDIO
TITLE "Through A Raindrop"
PERFORMER "In Loving Memory"
INDEX 01 40:53:44
TRACK 08 AUDIO
TITLE "Celestial"
PERFORMER "In Loving Memory"
INDEX 01 49:02:13
TRACK 09 AUDIO
TITLE "Nulla Religio, Solum Veritas"
PERFORMER "In Loving Memory"
INDEX 01 55:47:72

Отчёт AUDIOCHECKER:


AUDIOCHECKER v2.0 beta (build 457) - by Dester - opdester@freemail.hu
~~~~~~~~~~~~~~~~~~~~~~~~~~~~~~~~~~
-=== DO NOT EDIT THIS FILE! ===-

Path: ...\IN LOVING MEMORY [2011] [CD] Negation Of Life [EAC-FLAC]

1 -=- In Loving Memory 2011 Negation Of Life.flac -=- CDDA (99%)

182188500
Детали торрента:
Название:In Loving Memory - Negation Of Life (2011) [FLAC|Lossless|image + .cue] <Melodic Death Metal,Doom Metal>
Дата добавления:09 Авг 2018 09:11:48
Размер:497 MB
Раздают:3
Качают:0
Форум:Metal (Lossless)

All rights reserved © 2015-2018