TORRENTS45.XYZ

Скачать Grant Green - The Main Attraction (1976) 2002, Epic - EK 86145 [FLAC|Lossless|tracks + .cue] <Soul, Fusion, Smooth Jazz>


Grant Green - The Main Attraction (1976) 2002, Epic - EK 86145
Жанр: Soul, Fusion, Smooth Jazz
Издание: Epic - EK 86145
Источник: Аndy
Продолжительность: 00:37:44

Кодек: FLAC
Битрейт: Lossless
Тип рипа: tracks + .cue

Треклист:
01. The Main Attraction (19:36)
02. Future Feature (7:48)
03. Creature (10:20)

Отчёт EAC:


Exact Audio Copy V1.0 beta 3 from 29. August 2011

EAC extraction logfile from 27. April 2015, 8:20

Grant Green / The Main Attraction

Used drive : hp DVD A DH16ABSH Adapter: 0 ID: 0

Read mode : Secure
Utilize accurate stream : Yes
Defeat audio cache : Yes
Make use of C2 pointers : No

Read offset correction : 6
Overread into Lead-In and Lead-Out : No
Fill up missing offset samples with silence : Yes
Delete leading and trailing silent blocks : No
Null samples used in CRC calculations : Yes
Used interface : Native Win32 interface for Win NT & 2000
Gap handling : Appended to previous track

Used output format : User Defined Encoder
Selected bitrate : 896 kBit/s
Quality : High
Add ID3 tag : No
Command line compressor : C:\Program Files (x86)\Exact Audio Copy\Flac\flac.exe
Additional command line options : -8 -V -T "ARTIST=%artist%" -T "TITLE=%title%" -T "ALBUM=%albumtitle%" -T "DATE=%year%" -T "TRACKNUMBER=%tracknr%" -T "TOTALTRACKS=%numtracks%" -T "GENRE=%genre%" -T "ALBUMARTIST=%albumartist%" -T "ALBUM ARTIST=%albumartist%" -T "COMMENT=EAC Secure Mode, Test & Copy, AccurateRip, FLAC -8" %source%

TOC of the extracted CD

Track | Start | Length | Start sector | End sector
---------------------------------------------------------
1 | 0:00.00 | 19:35.55 | 0 | 88179
2 | 19:35.55 | 7:47.60 | 88180 | 123264
3 | 27:23.40 | 10:20.37 | 123265 | 169801

Track 1

Filename C:\EAC\Grant Green - The Main Attraction (2002) [FLAC] {CTI-Epic-Legacy EK 86145}\01 - The Main Attraction.wav

Pre-gap length 0:00:02.00

Peak level 100.0 %
Extraction speed 4.6 X
Track quality 100.0 %
Test CRC 87E2471B
Copy CRC 87E2471B
Accurately ripped (confidence 2) [8B99C9F3] (AR v2)
Copy OK

Track 2

Filename C:\EAC\Grant Green - The Main Attraction (2002) [FLAC] {CTI-Epic-Legacy EK 86145}\02 - Future Feature.wav

Pre-gap length 0:00:01.48

Peak level 100.0 %
Extraction speed 4.9 X
Track quality 99.9 %
Test CRC FE4FF111
Copy CRC FE4FF111
Accurately ripped (confidence 2) [5720D29D] (AR v2)
Copy OK

Track 3

Filename C:\EAC\Grant Green - The Main Attraction (2002) [FLAC] {CTI-Epic-Legacy EK 86145}\03 - Creature.wav

Pre-gap length 0:00:01.60

Peak level 93.3 %
Extraction speed 5.6 X
Track quality 99.9 %
Test CRC 87DAF87A
Copy CRC 87DAF87A
Accurately ripped (confidence 2) [3B967EB4] (AR v2)
Copy OK

All tracks accurately ripped

No errors occurred

End of status report

==== Log checksum C3AEE1C033F9F95B6E73C9B00BDA8FB1A40A5CE36B118C79B980E642DD5FE204 ====

Cue Sheet (.cue):


REM GENRE Jazz
REM DATE 1976
REM DISCID 2208D803
REM COMMENT "ExactAudioCopy v1.0b3"
PERFORMER "Grant Green"
TITLE "The Main Attraction"
FILE "01 - The Main Attraction.wav" WAVE
TRACK 01 AUDIO
TITLE "The Main Attraction"
PERFORMER "Grant Green"
INDEX 01 00:00:00
TRACK 02 AUDIO
TITLE "Future Feature"
PERFORMER "Grant Green"
INDEX 00 19:34:07
FILE "02 - Future Feature.wav" WAVE
INDEX 01 00:00:00
TRACK 03 AUDIO
TITLE "Creature"
PERFORMER "Grant Green"
INDEX 00 07:46:00
FILE "03 - Creature.wav" WAVE
INDEX 01 00:00:00

Отчёт auCDtect Task manager:


-----------------------

DON'T MODIFY THIS FILE

-----------------------

PERFORMER: auCDtect Task Manager, ver. 1.6.0 RC1 build 1.6.0.1
Copyright (c) 2008-2010 y-soft. All rights reserved
http://y-soft.org

ANALYZER: auCDtect: CD records authenticity detector, version 0.8.2
Copyright (c) 2004 Oleg Berngardt. All rights reserved.
Copyright (c) 2004 Alexander Djourik. All rights reserved.

FILE: 03 - Creature.flac
Size: 53710747 Hash: 4AFC2E0A063C890FAC97383606300AE2 Accuracy: -m0
Conclusion: CDDA 100%
Signature: C07224291E0D8D2578BA50A81B23831FE31A0AA1
FILE: 02 - Future Feature.flac
Size: 45105444 Hash: 16B5182F2F9C5A5F1DB91B975C7B5E90 Accuracy: -m0
Conclusion: CDDA 100%
Signature: F66BE605F120AA79FD2114A4F9ED5C4C0B9CB9B5
FILE: 01 - The Main Attraction.flac
YouTube


Поглощение/вытеснение
Только с согласия релизера

Beijing65
Детали торрента:
Название:Grant Green - The Main Attraction (1976) 2002, Epic - EK 86145 [FLAC|Lossless|tracks + .cue] <Soul, Fusion, Smooth Jazz>
Дата добавления:04 Авг 2018 19:47:30
Размер:342 MB
Раздают:1
Качают:1
Форум:Jazz (Lossless)

All rights reserved © 2015-2019