TORRENTS45.XYZ

Скачать NGW: 72 самых опасных животных Австралии / 72 Dangerous Animals Australia (2014) IPTVRip (Серии 1-4 из 4)


72 самых опасных животных Австралии / 72 Dangerous Animals Australia (2014) IPTVRip (Серии 1-4 из 4)
Производство: Австралия, Showrunner Productions
Жанр: Документальный, природа, флора, фауна

Режиссер: Триш Робинсон
Участники: Митч Райан, биологи, ученые, спасатели

Описание:
Вы сидите на балконе, попивая лимонад, отгоняете собак динго от своих детей и прихлопываете мух размером с мадагаскарских тараканов. На улице тёплый солнечный австралийский выходной, вы смотрите на красивый океан и решаете записаться на курсы дайвинга с маской, что кажется отличной идеей. После быстрого инструктажа обо всём, что можно и нельзя трогать, вы оказываетесь в кристально чистой воде, окружённый рыбами всех цветов радуги. Ваше внимание привлекает одна маленькая раковина, вы подбираете её, чтобы насладиться цветами, чувствуете лёгкий укол... Поздравляем, вас ужалил конус. Это один из наименее известных, но очень опасных моллюсков, и если вы не обратитесь за помощью как можно скорее, то можете умереть в течение часа! Добро пожаловать в обзор самых смертоносных животных Австралии. Мы внимательно рассмотрим созданий, к которым не стоит приближаться.



Продолжительность: 4 x ~ 00:44:00
Качество видео: IPTVRip
Перевод: Одноголосый закадровый, профессиональный (SDI Media)
Субтитры: отсутствуют

Видео: XviD, 704x400, ~ 1600 Kbps (01-03), DivX 5, 720x400, ~ 1800 Kbps (04)
Аудио: MP3, 2 ch, 128 Kbps (текст читал: Олег Белов)

Mediainfo: серии 1-4


Общее
Полное имя : F:\КИНО\72.dangerous.animals.Australia.avi\72samyhopasnyhzhivotnyhAvstralii.01.avi
Формат : AVI
Формат/Информация : Audio Video Interleave
Размер файла : 547 Мбайт
Продолжительность : 44 м. 0 с.
Общий поток : 1737 Кбит/сек
Программа кодирования : VirtualDubMod 1.5.10.3 | www.virtualdub-fr.org || (build 2550/release)
Библиотека кодирования : VirtualDub build 35576/release

Видео
Идентификатор : 0
Формат : MPEG-4 Visual
Профиль формата : Advanced Simple@L5
Настройки формата : BVOP1 / Custom Matrix
Параметр BVOP формата : 1
Параметр QPel формата : Нет
Параметр GMC формата : Без точки перехода
Параметр матрицы формата : Выборочная
Идентификатор кодека : XVID
Идентификатор кодека/Подсказка : XviD
Продолжительность : 44 м. 0 с.
Битрейт : 1599 Кбит/сек
Ширина : 704 пикселя
Высота : 400 пикселей
Соотношение сторон : 16:9
Частота кадров : 25,000 кадров/сек
Цветовое пространство : YUV
Субдискретизация насыщенности : 4:2:0
Битовая глубина : 8 бит
Тип развёртки : Прогрессивная
Метод сжатия : С потерями
Бит/(Пиксели*Кадры) : 0.227
Размер потока : 503 Мбайт (92%)
Библиотека кодирования : XviD 1.2.1 (UTC 2008-12-04)

Аудио
Идентификатор : 1
Формат : MPEG Audio
Версия формата : Version 1
Профиль формата : Layer 3
Идентификатор кодека : 55
Идентификатор кодека/Подсказка : MP3
Продолжительность : 44 м. 0 с.
Вид битрейта : Постоянный
Битрейт : 128 Кбит/сек
Каналы : 2 канала
Частота : 48,0 КГц
Метод сжатия : С потерями
Размер потока : 40,3 Мбайт (7%)
Выравнивание : Соединение по промежуткам
Продолжительность промежутка : 40 мс. (1,00 видеокадр)
Время предзагрузки промежутка : 504 мс.
Библиотека кодирования : LAME3.99.5ЄЄЄЄЄЄЄЄЄr

Общее
Полное имя : F:\КИНО\72.dangerous.animals.Australia.avi\72samyhopasnyhzhivotnyhAvstralii.02.avi
Формат : AVI
Формат/Информация : Audio Video Interleave
Размер файла : 547 Мбайт
Продолжительность : 44 м. 0 с.
Общий поток : 1737 Кбит/сек
Программа кодирования : VirtualDubMod 1.5.10.3 | www.virtualdub-fr.org || (build 2550/release)
Библиотека кодирования : VirtualDub build 35576/release

Видео
Идентификатор : 0
Формат : MPEG-4 Visual
Профиль формата : Advanced Simple@L5
Настройки формата : BVOP1 / Custom Matrix
Параметр BVOP формата : 1
Параметр QPel формата : Нет
Параметр GMC формата : Без точки перехода
Параметр матрицы формата : Выборочная
Идентификатор кодека : XVID
Идентификатор кодека/Подсказка : XviD
Продолжительность : 44 м. 0 с.
Битрейт : 1599 Кбит/сек
Ширина : 704 пикселя
Высота : 400 пикселей
Соотношение сторон : 16:9
Частота кадров : 25,000 кадров/сек
Цветовое пространство : YUV
Субдискретизация насыщенности : 4:2:0
Битовая глубина : 8 бит
Тип развёртки : Прогрессивная
Метод сжатия : С потерями
Бит/(Пиксели*Кадры) : 0.227
Размер потока : 503 Мбайт (92%)
Библиотека кодирования : XviD 1.2.1 (UTC 2008-12-04)

Аудио
Идентификатор : 1
Формат : MPEG Audio
Версия формата : Version 1
Профиль формата : Layer 3
Идентификатор кодека : 55
Идентификатор кодека/Подсказка : MP3
Продолжительность : 44 м. 0 с.
Вид битрейта : Постоянный
Битрейт : 128 Кбит/сек
Каналы : 2 канала
Частота : 48,0 КГц
Метод сжатия : С потерями
Размер потока : 40,3 Мбайт (7%)
Выравнивание : Соединение по промежуткам
Продолжительность промежутка : 40 мс. (1,00 видеокадр)
Время предзагрузки промежутка : 504 мс.
Библиотека кодирования : LAME3.99.5ЄЄЄЄЄЄЄЄЄЄ

Общее
Полное имя : F:\КИНО\72.dangerous.animals.Australia.avi\72samyhopasnyhzhivotnyhAvstralii.03.avi
Формат : AVI
Формат/Информация : Audio Video Interleave
Размер файла : 547 Мбайт
Продолжительность : 43 м. 56 с.
Общий поток : 1740 Кбит/сек
Программа кодирования : VirtualDubMod 1.5.10.3 | www.virtualdub-fr.org || (build 2550/release)
Библиотека кодирования : VirtualDub build 35576/release

Видео
Идентификатор : 0
Формат : MPEG-4 Visual
Профиль формата : Advanced Simple@L5
Настройки формата : BVOP1 / Custom Matrix
Параметр BVOP формата : 1
Параметр QPel формата : Нет
Параметр GMC формата : Без точки перехода
Параметр матрицы формата : Выборочная
Идентификатор кодека : XVID
Идентификатор кодека/Подсказка : XviD
Продолжительность : 43 м. 56 с.
Битрейт : 1602 Кбит/сек
Ширина : 704 пикселя
Высота : 400 пикселей
Соотношение сторон : 16:9
Частота кадров : 25,000 кадров/сек
Цветовое пространство : YUV
Субдискретизация насыщенности : 4:2:0
Битовая глубина : 8 бит
Тип развёртки : Прогрессивная
Метод сжатия : С потерями
Бит/(Пиксели*Кадры) : 0.228
Размер потока : 503 Мбайт (92%)
Библиотека кодирования : XviD 1.2.1 (UTC 2008-12-04)

Аудио
Идентификатор : 1
Формат : MPEG Audio
Версия формата : Version 1
Профиль формата : Layer 3
Идентификатор кодека : 55
Идентификатор кодека/Подсказка : MP3
Продолжительность : 43 м. 56 с.
Вид битрейта : Постоянный
Битрейт : 128 Кбит/сек
Каналы : 2 канала
Частота : 48,0 КГц
Метод сжатия : С потерями
Размер потока : 40,2 Мбайт (7%)
Выравнивание : Соединение по промежуткам
Продолжительность промежутка : 40 мс. (1,00 видеокадр)
Время предзагрузки промежутка : 504 мс.
Библиотека кодирования : LAME3.99.5ЄЄЄЄЄЄЄЄЄЄ

Общее
Полное имя : F:\КИНО\72.dangerous.animals.Australia.avi\72samyhopasnyhzhivotnyhAvstralii.04.avi
Формат : AVI
Формат/Информация : Audio Video Interleave
Размер файла : 613 Мбайт
Продолжительность : 43 м. 59 с.
Общий поток : 1947 Кбит/сек

Видео
Идентификатор : 0
Формат : MPEG-4 Visual
Настройки формата : BVOP
Параметр BVOP формата : Да
Параметр QPel формата : Нет
Параметр GMC формата : Без точки перехода
Параметр матрицы формата : Default (H.263)
Идентификатор кодека : DX50
Идентификатор кодека/Подсказка : DivX 5
Продолжительность : 43 м. 59 с.
Битрейт : 1801 Кбит/сек
Ширина : 720 пикселей
Высота : 400 пикселей
Соотношение сторон : 16:9
Частота кадров : 25,000 кадров/сек
Цветовое пространство : YUV
Субдискретизация насыщенности : 4:2:0
Битовая глубина : 8 бит
Тип развёртки : Прогрессивная
Метод сжатия : С потерями
Бит/(Пиксели*Кадры) : 0.250
Размер потока : 567 Мбайт (93%)
Библиотека кодирования : Intel(R) MPEG-4 encoder based on Intel(R) IPP 6.1 build 137.20[6.1.137.763]

Аудио
Идентификатор : 1
Формат : MPEG Audio
Версия формата : Version 1
Профиль формата : Layer 3
Настройки формата : Joint stereo / MS Stereo
Идентификатор кодека : 55
Идентификатор кодека/Подсказка : MP3
Продолжительность : 43 м. 59 с.
Вид битрейта : Постоянный
Битрейт : 128 Кбит/сек
Каналы : 2 канала
Частота : 48,0 КГц
Метод сжатия : С потерями
Размер потока : 40,3 Мбайт (7%)
Выравнивание : Соединение по промежуткам
Продолжительность промежутка : 24 мс. (0,60 видеокадр)
Библиотека кодирования : LAME3.98.2
Скриншоты:

Дополнительные скриншоты:



Все одноименные релизы в Клубе
Детали торрента:
Название:NGW: 72 самых опасных животных Австралии / 72 Dangerous Animals Australia (2014) IPTVRip (Серии 1-4 из 4)
Дата добавления:15 Июл 2018 13:44:25
Размер:2,2 GB
Раздают:5
Качают:0
Форум:National Geographic

All rights reserved © 2015-2018