TORRENTS45.XYZ

Скачать Hadley Caliman - Iapetus (1972) 2017, Solid Records [FLAC|Lossless|tracks + .cue] <Post-Bop>


Hadley Caliman - Iapetus (1972) 2017, Solid Records
Жанр: Post-Bop
Издание: Solid Records - CDSOL-45272
Продолжительность: 00:38:26

Кодек: FLAC (tracks+.cue)
Битрейт: Lossless
Источник (релизер): mvns
Страна-производитель диска: Japan
Наличие сканов в содержимом раздачи: да

Треклист:

01. Watercress [3:50]
02. Ambivalence [7:39]
03. Dee's Glee [7:46]
04. Iapetus [10:03]
05. Quadrivium [3:51]
06. Green Eyes [5:16]

Отчёт XLD:


X Lossless Decoder version 20170729 (150.3)

XLD extraction logfile from 2018-06-08 11:33:16 -0700

Hadley Caliman / Iapetus

Used drive : TSSTcorp CDDVDW SE-218CB (revision MF00)
Media type : Pressed CD

Ripper mode : XLD Secure Ripper
Disable audio cache : OK for the drive with a cache less than 1375KiB
Make use of C2 pointers : NO
Read offset correction : 6
Max retry count : 100
Gap status : Analyzed, Appended (except HTOA)

TOC of the extracted CD
Track | Start | Length | Start sector | End sector
---------------------------------------------------------
1 | 00:00:00 | 03:49:54 | 0 | 17228
2 | 03:49:54 | 07:39:37 | 17229 | 51690
3 | 11:29:16 | 07:46:33 | 51691 | 86673
4 | 19:15:49 | 10:02:52 | 86674 | 131875
5 | 29:18:26 | 03:51:23 | 131876 | 149223
6 | 33:09:49 | 05:15:70 | 149224 | 172918

AccurateRip Summary (DiscID: 00094d4d-00326009-48090106)
Track 01 : OK (v2, confidence 1/1)
Track 02 : OK (v2, confidence 1/1)
Track 03 : OK (v2, confidence 1/1)
Track 04 : OK (v2, confidence 1/1)
Track 05 : OK (v2, confidence 1/1)
Track 06 : OK (v2, confidence 1/1)
->All tracks accurately ripped.

All Tracks
Album gain : -4.65 dB
Peak : 0.970978
Statistics
Read error : 0
Jitter error (maybe fixed) : 0
Retry sector count : 0
Damaged sector count : 0

Track 01
Filename : /Volumes/Multimedia/XLD/Hadley Caliman - (1972) Iapetus [FLAC]/01 - Hadley Caliman - Watercress.flac
Pre-gap length : 00:02:00

Track gain : -5.41 dB
Peak : 0.867126
CRC32 hash (test run) : 48D15F9B
CRC32 hash : 48D15F9B
CRC32 hash (skip zero) : 4A37A77B
AccurateRip v1 signature : D5A447CE
AccurateRip v2 signature : 4BDCEB84
->Accurately ripped (v2, confidence 1/1)
Statistics
Read error : 0
Jitter error (maybe fixed) : 0
Retry sector count : 0
Damaged sector count : 0

Track 02
Filename : /Volumes/Multimedia/XLD/Hadley Caliman - (1972) Iapetus [FLAC]/02 - Hadley Caliman - Ambivalence.flac
Pre-gap length : 00:03:00

Track gain : -4.44 dB
Peak : 0.877319
CRC32 hash (test run) : 7DE5F7D0
CRC32 hash : 7DE5F7D0
CRC32 hash (skip zero) : 724CFC6A
AccurateRip v1 signature : 4F659E59
AccurateRip v2 signature : 28CB8A48
->Accurately ripped (v2, confidence 1/1)
Statistics
Read error : 0
Jitter error (maybe fixed) : 0
Retry sector count : 0
Damaged sector count : 0

Track 03
Filename : /Volumes/Multimedia/XLD/Hadley Caliman - (1972) Iapetus [FLAC]/03 - Hadley Caliman - Dee's Glee.flac
Pre-gap length : 00:03:00

Track gain : -2.64 dB
Peak : 0.838623
CRC32 hash (test run) : AE4D5F95
CRC32 hash : AE4D5F95
CRC32 hash (skip zero) : 812570B5
AccurateRip v1 signature : 73DC87D9
AccurateRip v2 signature : 28DF78CC
->Accurately ripped (v2, confidence 1/1)
Statistics
Read error : 0
Jitter error (maybe fixed) : 0
Retry sector count : 0
Damaged sector count : 0

Track 04
Filename : /Volumes/Multimedia/XLD/Hadley Caliman - (1972) Iapetus [FLAC]/04 - Hadley Caliman - Iapetus.flac
Pre-gap length : 00:03:00

Track gain : -4.33 dB
Peak : 0.970978
CRC32 hash (test run) : B2C5158D
CRC32 hash : B2C5158D
CRC32 hash (skip zero) : B8BAD7A8
AccurateRip v1 signature : FBC0FB82
AccurateRip v2 signature : 0D9E1ACF
->Accurately ripped (v2, confidence 1/1)
Statistics
Read error : 0
Jitter error (maybe fixed) : 0
Retry sector count : 0
Damaged sector count : 0

Track 05
Filename : /Volumes/Multimedia/XLD/Hadley Caliman - (1972) Iapetus [FLAC]/05 - Hadley Caliman - Quadrivium.flac
Pre-gap length : 00:03:00

Track gain : -5.27 dB
Peak : 0.911530
CRC32 hash (test run) : 8659E375
CRC32 hash : 8659E375
CRC32 hash (skip zero) : 9EAAE8F7
AccurateRip v1 signature : 59F6165B
AccurateRip v2 signature : 29F9A414
->Accurately ripped (v2, confidence 1/1)
Statistics
Read error : 0
Jitter error (maybe fixed) : 0
Retry sector count : 0
Damaged sector count : 0

Track 06
Filename : /Volumes/Multimedia/XLD/Hadley Caliman - (1972) Iapetus [FLAC]/06 - Hadley Caliman - Green Eyes.flac
Pre-gap length : 00:03:00

Track gain : -4.94 dB
Peak : 0.871765
CRC32 hash (test run) : 11690988
CRC32 hash : 11690988
CRC32 hash (skip zero) : F641AF5F
AccurateRip v1 signature : 89F24450
AccurateRip v2 signature : 5424F79C
->Accurately ripped (v2, confidence 1/1)
Statistics
Read error : 0
Jitter error (maybe fixed) : 0
Retry sector count : 0
Damaged sector count : 0

No errors occurred

End of status report

-----BEGIN XLD SIGNATURE-----
qkHiTEA1RbhI6ExY51LxEzvxfa0y0ffLQFrB92.UoFdKA2INrogf62YU_LHpUaELhG8zgkf5jyEOrwpScScXGfb.jcQvSw92LdmhhuG
-----END XLD SIGNATURE-----

Cue Sheet (.cue):


TITLE "Iapetus"
PERFORMER "Hadley Caliman"
REM GENRE "Jazz"
REM DATE "1972"
REM DISCID 48090106
REM REPLAYGAIN_ALBUM_GAIN -4.65 dB
REM REPLAYGAIN_ALBUM_PEAK 0.970978
FILE "01 - Watercress.flac" WAVE
TRACK 01 AUDIO
TITLE "Watercress"
PERFORMER "Hadley Caliman"
REM REPLAYGAIN_TRACK_GAIN -5.41 dB
REM REPLAYGAIN_TRACK_PEAK 0.867126
INDEX 01 00:00:00
TRACK 02 AUDIO
TITLE "Ambivalence"
PERFORMER "Hadley Caliman"
REM REPLAYGAIN_TRACK_GAIN -4.44 dB
REM REPLAYGAIN_TRACK_PEAK 0.877319
INDEX 00 03:46:54
FILE "02 - Ambivalence.flac" WAVE
INDEX 01 00:00:00
TRACK 03 AUDIO
TITLE "Dee's Glee"
PERFORMER "Hadley Caliman"
REM REPLAYGAIN_TRACK_GAIN -2.64 dB
REM REPLAYGAIN_TRACK_PEAK 0.838623
INDEX 00 07:36:37
FILE "03 - Dee's Glee.flac" WAVE
INDEX 01 00:00:00
TRACK 04 AUDIO
TITLE "Iapetus"
PERFORMER "Hadley Caliman"
REM REPLAYGAIN_TRACK_GAIN -4.33 dB
REM REPLAYGAIN_TRACK_PEAK 0.970978
INDEX 00 07:43:33
FILE "04 - Iapetus.flac" WAVE
INDEX 01 00:00:00
TRACK 05 AUDIO
TITLE "Quadrivium"
PERFORMER "Hadley Caliman"
REM REPLAYGAIN_TRACK_GAIN -5.27 dB
REM REPLAYGAIN_TRACK_PEAK 0.911530
INDEX 00 09:59:52
FILE "05 - Quadrivium.flac" WAVE
INDEX 01 00:00:00
TRACK 06 AUDIO
TITLE "Green Eyes"
PERFORMER "Hadley Caliman"
REM REPLAYGAIN_TRACK_GAIN -4.94 dB
REM REPLAYGAIN_TRACK_PEAK 0.871765
INDEX 00 03:48:23
FILE "06 - Green Eyes.flac" WAVE
INDEX 01 00:00:00

Отчёт auCDtect Task manager:


-----------------------

DON'T MODIFY THIS FILE

-----------------------

PERFORMER: auCDtect Task Manager, ver. 1.6.0 RC1 build 1.6.0.1
Copyright (c) 2008-2010 y-soft. All rights reserved
http://y-soft.org

ANALYZER: auCDtect: CD records authenticity detector, version 0.8.2
Copyright (c) 2004 Oleg Berngardt. All rights reserved.
Copyright (c) 2004 Alexander Djourik. All rights reserved.

FILE: 06 - Green Eyes.flac
Size: 25016447 Hash: AD80995BAC186174EB197229B18C864F Accuracy: -m0
Conclusion: CDDA 100%
Signature: 1598A43E142D351FF523C711EC5D040D1FDE1795
FILE: 05 - Quadrivium.flac
Size: 19759835 Hash: 078DBD92365521D7FCFA34E29A40A9B9 Accuracy: -m0
Conclusion: CDDA 100%
Signature: 060BA5F83BB4E595F64252F28D75B64E96773A6D
FILE: 04 - Iapetus.flac
Size: 56266229 Hash: 32EB9B46FD6FE0CE4982DDCCC1668407 Accuracy: -m0
Conclusion: CDDA 100%
Signature: 7F403EB2984E1C4641F765B15E3A33988739A0B2
FILE: 03 - Dee's Glee.flac
Size: 44767720 Hash: 7F8A47A31FB6914124E2F0A95F540753 Accuracy: -m0
Conclusion: CDDA 100%
Signature: 30841EF3A27451C47F245D05F2E401FB367F65E0
FILE: 02 - Ambivalence.flac
Size: 42828975 Hash: AA600FC32CAAFE9A1F18DC601AD7EBA0 Accuracy: -m0
Conclusion: CDDA 100%
Signature: 5CE296B95934F4DC409939FD2E5F3704EB0373B2
FILE: 01 - Watercress.flac
Size: 22238875 Hash: 0D3734237B270F92DC5CBFC21E400217 Accuracy: -m0
Conclusion: CDDA 100%
Signature: FB49E4D33464459D9B3DAAE2D473AF71C0B540A7

Состав

Hadley Caliman - tenor saxophone, flute
Luis Gasca - trumpet
Todd Cochran - piano
James Leary - bass
Woody Theus - drums
Victor Pantoja - congas
Hungria Garcia - timbales
Детали торрента:
Название:Hadley Caliman - Iapetus (1972) 2017, Solid Records [FLAC|Lossless|tracks + .cue] <Post-Bop>
Дата добавления:12 Июл 2018 10:34:44
Размер:202 MB
Раздают:1
Качают:0
Форум:Jazz (Lossless)

All rights reserved © 2015-2019