TORRENTS45.XYZ

Скачать Красотка на всю голову / I Feel Pretty (2018) BDRemux [H.264/1080p] [EN / EN, Sp Sub]


Красотка на всю голову / I Feel Pretty (2018) BDRemux [H.264/1080p] [EN / EN, Sp Sub]

Производство: Китай, США / Huayi Brothers Pictures, Voltage Pictures, Wonderland Sound and Vision
Жанр: комедия

Режиссер: Эбби Кон , Марк Силверштейн
Актеры: Эми Шумер, Мишель Уильямс, Том Хоппер, Рори Сковел, Адриан Мартинес, Эмили Ратаковски, Эйди Брайант, Бизи Филиппс, Лорен Хаттон, Сашир Замата, Кэролайн Дэй

Описание:
Ее жизнь состояла из вечных попыток сесть на диету или заняться фитнесом. «Попытка засчитана», - подумала Вселенная и скинула бедняжку с велотренажера. Девушка ударяется головой и обретает аномальную уверенность в том, что теперь она просто неотразима. Одна проблема - в глазах других людей она ни капли не изменилась. В общем, красотка на всю голову.


Возраст: 16+ (зрителям, достигшим 16 лет)
Рейтинг MPAA: PG-13 (детям до 13 лет просмотр нежелателен)

Продолжительность: 01:50:58
Качество видео: BDRemux
Перевод: Отсутствует
Язык озвучки: Английский
Субтитры: английские, испанские

Видео: AVC/H.264, 1920x1080 (16:9), 34715 kbps, 23.976 fps, 0.698 bpp
Аудио: DTS-HD MA, 8 / 6 ch, 3 748 kb/s / 1 509 kb/s - английский

MediaInfo

General
Unique ID : 313922463774470426228013873523925968553 (0xEC2B446F13D2165E2950C8D3D2B3E6A9)
Complete name : I Feel Pretty 2018 REMUX 1080p Blu-ray AVC DTS-HD MA 7 1-LEGi0N\I.Feel.Pretty.2018.REMUX.1080p.Blu-ray.AVC.DTS-HD.MA.7.1-LEGi0N.mkv
Format : Matroska
Format version : Version 4 / Version 2
File size : 29.9 GiB
Duration : 1 h 50 min
Overall bit rate mode : Variable
Overall bit rate : 38.6 Mb/s
Encoded date : UTC 2018-07-11 15:04:08
Writing application : mkvmerge v24.0.0 ('Beyond The Pale') 64-bit
Writing library : libebml v1.3.6 + libmatroska v1.4.9

Video
ID : 1
Format : AVC
Format/Info : Advanced Video Codec
Format profile : High@L4.1
Format settings, CABAC : Yes
Format settings, ReFrames : 4 frames
Codec ID : V_MPEG4/ISO/AVC
Duration : 1 h 50 min
Bit rate mode : Variable
Bit rate : 34.7 Mb/s
Maximum bit rate : 39.0 Mb/s
Width : 1 920 pixels
Height : 1 080 pixels
Display aspect ratio : 16:9
Frame rate mode : Constant
Frame rate : 23.976 (24000/1001) FPS
Color space : YUV
Chroma subsampling : 4:2:0
Bit depth : 8 bits
Scan type : Progressive
Bits/(Pixel*Frame) : 0.698
Stream size : 26.9 GiB (90%)
Title : English
Language : English
Default : Yes
Forced : No

Audio
ID : 2
Format : DTS
Format/Info : Digital Theater Systems
Format profile : MA / Core
Mode : 16
Format settings, Endianness : Big
Codec ID : A_DTS
Duration : 1 h 50 min
Bit rate mode : Variable / Constant
Bit rate : 3 748 kb/s / 1 509 kb/s
Channel(s) : 8 channels / 6 channels
Channel positions : Front: L C R, Side: L R, Back: L R, LFE / Front: L C R, Side: L R, LFE
Sampling rate : 48.0 kHz
Frame rate : 93.750 FPS (512 spf)
Bit depth : 24 bits
Compression mode : Lossless / Lossy
Stream size : 2.91 GiB (10%)
Title : English
Language : English
Default : Yes
Forced : No

Text #1
ID : 3
Format : PGS
Codec ID : S_HDMV/PGS
Codec ID/Info : Picture based subtitle format used on BDs/HD-DVDs
Duration : 1 h 49 min
Bit rate : 59.9 kb/s
Count of elements : 4197
Stream size : 46.9 MiB (0%)
Title : English (SDH)
Language : English
Default : No
Forced : No

Text #2
ID : 4
Format : PGS
Codec ID : S_HDMV/PGS
Codec ID/Info : Picture based subtitle format used on BDs/HD-DVDs
Duration : 1 h 49 min
Bit rate : 46.9 kb/s
Count of elements : 3591
Stream size : 36.7 MiB (0%)
Title : Spanish
Language : Spanish
Default : No
Forced : No

Menu
00:00:00.000 : en:00:00:00.000
00:07:30.659 : en:00:07:30.659
00:13:31.185 : en:00:13:31.185
00:20:21.846 : en:00:20:21.846
00:25:49.131 : en:00:25:49.131
00:30:03.385 : en:00:30:03.385
00:34:31.194 : en:00:34:31.194
00:38:47.492 : en:00:38:47.492
00:44:13.734 : en:00:44:13.734
00:47:59.251 : en:00:47:59.251
00:53:46.306 : en:00:53:46.306
00:58:07.526 : en:00:58:07.526
01:04:03.590 : en:01:04:03.590
01:11:54.310 : en:01:11:54.310
01:19:13.415 : en:01:19:13.415
01:27:14.062 : en:01:27:14.062
01:31:33.154 : en:01:31:33.154
01:37:00.565 : en:01:37:00.565
01:44:10.786 : en:01:44:10.786
01:46:17.580 : en:01:46:17.580

Скриншоты:



Все одноименные релизы в Клубе

Смотреть Online

http://37.220.36.15/video/5a9dce2776832d1b/iframe
Детали торрента:
Название:Красотка на всю голову / I Feel Pretty (2018) BDRemux [H.264/1080p] [EN / EN, Sp Sub]
Дата добавления:11 Июл 2018 23:05:44
Размер:29,9 GB
Раздают:1
Качают:0
Форум:Фильмы в оригинале (HD, UHD, UHD-LQ)

All rights reserved © 2015-2018