TORRENTS45.XYZ

Скачать Пляж. Жаркий сезон (2018) WEBRip (сезон 2, серии 1-16 из 16)


Пляж. Жаркий сезон (2018) WEBRip (сезон 2, серии 1-16 из 16)
Производство: Россия / ПЦ «Браво»
Жанр: детектив

Режиссер: Леонид Белозорович
Актеры: Павел Делонг, Георгий Дронов, Елена Аросьева, Мария Горбань, Юлия Харьковская, Екатерина Сапрыкина, Олег Метелев, Денис Доронин, Сергей Басок, Кристина Курбанова и др.

Описание:
Продолжение сериала "Пляж".
Приятели продолжают патрулировать морское побережье и охранять покой отдыхающих. Но теперь Андрей Гошко берется еще и наладить работу в местном отделении полиции, которое погрязло в коррупции и скандалах. Да и его другу Сергею предстоит борьба с местными казнокрадами, проститутками и подпольными игорными заведениями, которые в сезон отпусков пытаются получить сверхприбыль на отдыхающих.


Возраст: 12+ (зрителям, достигшим 12 лет)
Дата российской премьеры: 30 июня 2018 (НТВ)

Продолжительность: ~00:49:00 серия
Качество видео: WEBRip

Видео: Xvid, 720x400 (16:9), ~1334 Kbps
Аудио: AC3, 2 ch, 192 kbps

Mediainfo:


Общее
Полное имя : D:\Мои фильмы\Pljazh_S2_Zharkij_sezon_1-16iz16_2017_XviD_WEBRip\Pljazh_S2_Zharkij_sezon_01.avi
Формат : AVI
Формат/Информация : Audio Video Interleave
Размер файла : 556 Мбайт
Продолжительность : 50 м. 35 с.
Общий поток : 1535 Кбит/сек
Программа кодирования : VirtualDubMod 1.5.10.3 | www.virtualdub-fr.org || (build 2550/release)
Библиотека кодирования : VirtualDub2 build 41867/release

Видео
Идентификатор : 0
Формат : MPEG-4 Visual
Профиль формата : Advanced Simple@L5
Настройки формата : BVOP2
Параметр BVOP формата : 2
Параметр QPel формата : Нет
Параметр GMC формата : Без точки перехода
Параметр матрицы формата : Default (H.263)
Идентификатор кодека : XVID
Идентификатор кодека/Подсказка : XviD
Продолжительность : 50 м. 35 с.
Битрейт : 1334 Кбит/сек
Ширина : 720 пикселей
Высота : 400 пикселей
Соотношение сторон : 16:9
Частота кадров : 25,000 кадров/сек
Цветовое пространство : YUV
Субдискретизация насыщенности : 4:2:0
Битовая глубина : 8 бит
Тип развёртки : Прогрессивная
Метод сжатия : С потерями
Бит/(Пиксели*Кадры) : 0.185
Размер потока : 483 Мбайт (87%)
Библиотека кодирования : XviD 67

Аудио
Идентификатор : 1
Формат : AC-3
Формат/Информация : Audio Coding 3
Идентификатор кодека : 2000
Продолжительность : 50 м. 35 с.
Вид битрейта : Постоянный
Битрейт : 192 Кбит/сек
Каналы : 2 канала
Расположение каналов : Front: L R
Частота : 48,0 КГц
Частота кадров : 31,250 кадров/сек (1536 SPF)
Битовая глубина : 16 бит
Метод сжатия : С потерями
Размер потока : 69,5 Мбайт (13%)
Выравнивание : Соединение по промежуткам
Продолжительность промежутка : 40 мс. (1,00 видеокадр)
Время предзагрузки промежутка : 512 мс.
ServiceKind/String : Complete Main
Скриншоты:


Все одноименные релизы в Клубе

Смотреть Online

http://moonwalk.cc/serial/a0bd94309424162d87856d0b8020161a/iframe
Детали торрента:
Название:Пляж. Жаркий сезон (2018) WEBRip (сезон 2, серии 1-16 из 16)
Дата добавления:10 Июл 2018 16:19:56
Размер:8,68 GB
Раздают:18
Качают:2
Форум:Отечественные сериалы

All rights reserved © 2015-2018