TORRENTS45.XYZ

Скачать Masterboy and Beatrix Delgado - Are You Ready: We Love The 90s (2018) Maxi-Single [FLAC|Lossless|image + .cue] <Euro-House, Eurodance>


Masterboy and Beatrix Delgado - Are You Ready: We Love The 90s (2018) Maxi-Single
Жанр: Euro-House, Eurodance
Издание: Klubbstyle Records - 535 9012.3
Продолжительность: 00: 50:06

Кодек: FLAC
Битрейт: Lossless
Тип рипа: image + .cue

Треклист:
01. Are You Ready (We Love The 90s) (Radio Edit) (3:39)
02. Are You Ready (We Love The 90s) (Rob & Chris 90s Edit) (3:37)
03. Are You Ready (We Love The 90s) (Empyre One & Enerdizer Edit) (3:11)
04. Are You Ready (We Love The 90s) (DJ Gollum feat. DJ Cap Edit) (3:52)
05. Are You Ready (We Love The 90s) (Klubbingman & Andy Jay Powell Edit) (4:01)
06. Are You Ready (We Love The 90s) (Chris Decay Radio Edit) (3:05)
07. Are You Ready (We Love The 90s) (Original Extended) (4:41)
08. Are You Ready (We Love The 90s) (Rob & Chris 90s Exended) (4:28)
09. Are You Ready (We Love The 90s) (Empyre One & Enerdizer Remix) (4:05)
10. Are You Ready (We Love The 90s) (DJ Gollum Feat. DJ Cap Remix) (5:07)
11. Are You Ready (We Love The 90s) (Klubbingman & Andy Jay Powell Remix) (6:16)
12. Are You Ready (We Love The 90s) (Chris Decay Extended) (4:04)

Отчёт EAC:


Exact Audio Copy V1.3 from 2. September 2016

Отчёт EAC об извлечении, выполненном 16. мая 2018, 10:32

Masterboy & Beatrix Delgado / Are you Ready (We love the 90s)

Дисковод: ASUS DRW-1814BLT Adapter: 0 ID: 0

Режим чтения : Достоверность
Использование точного потока : Да
Отключение кэша аудио : Да
Использование указателей C2 : Нет

Коррекция смещения при чтении : 6
Способность читать области Lead-in и Lead-out : Нет
Заполнение пропущенных сэмплов тишиной : Да
Удаление блоков с тишиной в начале и конце : Нет
При вычислениях CRC использовались нулевые сэмплы : Да
Интерфейс : Установленный внешний ASPI-интерфейс

Выходной формат : Пользовательский кодировщик
Выбранный битрейт : 128 kBit/s
Качество : Высокий
Добавление ID3-тега : Нет
Утилита сжатия : C:\Program Files (x86)\Exact Audio Copy\FLAC\FLAC.EXE
Дополнительные параметры : -V -8 -T "Date=%year%" -T "Genre=%genre%" %source%

TOC извлечённого CD

Трек | Старт | Длительность | Начальный сектор | Конечный сектор
---------------------------------------------------------------------
1 | 0:00.00 | 3:39.14 | 0 | 16438
2 | 3:39.14 | 3:37.09 | 16439 | 32722
3 | 7:16.23 | 3:10.38 | 32723 | 47010
4 | 10:26.61 | 3:51.52 | 47011 | 64387
5 | 14:18.38 | 4:00.72 | 64388 | 82459
6 | 18:19.35 | 3:04.56 | 82460 | 96315
7 | 21:24.16 | 4:41.01 | 96316 | 117391
8 | 26:05.17 | 4:28.18 | 117392 | 137509
9 | 30:33.35 | 4:05.27 | 137510 | 155911
10 | 34:38.62 | 5:07.27 | 155912 | 178963
11 | 39:46.14 | 6:15.42 | 178964 | 207130
12 | 46:01.56 | 4:03.65 | 207131 | 225420

Характеристики диапазона извлечения и сообщения об ошибках

Выбранный диапазон

Имя файла E:\Торрент\Мои Раздачи\CDM\Masterboy & Beatrix Delgado - Are You Ready (We Love The 90s) (CDM-2018)\Masterboy & Beatrix Delgado - Are you Ready (We love the 90s).wav

Пиковый уровень 100.0 %
Скорость извлечения 4.2 X
Качество диапазона 99.9 %
CRC теста 569DB0AF
CRC копии 569DB0AF
Копирование... OK

Ошибок не произошло

AccurateRip: сводка

Трек 1 отсутствует в базе данных
Трек 2 отсутствует в базе данных
Трек 3 отсутствует в базе данных
Трек 4 отсутствует в базе данных
Трек 5 отсутствует в базе данных
Трек 6 отсутствует в базе данных
Трек 7 отсутствует в базе данных
Трек 8 отсутствует в базе данных
Трек 9 отсутствует в базе данных
Трек 10 отсутствует в базе данных
Трек 11 отсутствует в базе данных
Трек 12 отсутствует в базе данных

Ни одного трека нет в базе AccurateRip

Конец отчёта

==== Контрольная сумма отчёта 54691AF72A3757E0C198E56C0D3DF755D076AB4FD8063BB86FA8D6391AAE344A ====

Cue Sheet (.cue):


REM GENRE Euro-House
REM DATE 2018
REM DISCID 9D0BBD0C
REM COMMENT "ExactAudioCopy v1.3"
PERFORMER "Masterboy & Beatrix Delgado"
TITLE "Are you Ready (We love the 90s)"
REM COMPOSER ""
FILE "Masterboy & Beatrix Delgado - Are you Ready (We love the 90s).flac" WAVE
TRACK 01 AUDIO
TITLE "Are You Ready (We Love The 90s) (Radio Edit)"
PERFORMER "Masterboy & Beatrix Delgado"
REM COMPOSER ""
INDEX 01 00:00:00
TRACK 02 AUDIO
TITLE "Are You Ready (We Love The 90s) (Rob & Chris 90s Edit)"
PERFORMER "Masterboy & Beatrix Delgado"
REM COMPOSER ""
INDEX 00 03:38:14
INDEX 01 03:39:14
TRACK 03 AUDIO
TITLE "Are You Ready (We Love The 90s) (Empyre One & Enerdizer Edit)"
PERFORMER "Masterboy & Beatrix Delgado"
REM COMPOSER ""
INDEX 00 07:15:23
INDEX 01 07:16:23
TRACK 04 AUDIO
TITLE "Are You Ready (We Love The 90s) (DJ Gollum feat. DJ Cap Edit)"
PERFORMER "Masterboy & Beatrix Delgado"
REM COMPOSER ""
INDEX 00 10:25:61
INDEX 01 10:26:61
TRACK 05 AUDIO
TITLE "Are You Ready (We Love The 90s) (Klubbingman & Andy Jay Powell Edit)"
PERFORMER "Masterboy & Beatrix Delgado"
REM COMPOSER ""
INDEX 00 14:17:38
INDEX 01 14:18:38
TRACK 06 AUDIO
TITLE "Are You Ready (We Love The 90s) (Chris Decay Radio Edit)"
PERFORMER "Masterboy & Beatrix Delgado"
REM COMPOSER ""
INDEX 00 18:18:38
INDEX 01 18:19:35
TRACK 07 AUDIO
TITLE "Are You Ready (We Love The 90s) (Original Extended)"
PERFORMER "Masterboy & Beatrix Delgado"
REM COMPOSER ""
INDEX 00 21:23:20
INDEX 01 21:24:16
TRACK 08 AUDIO
TITLE "Are You Ready (We Love The 90s) (Rob & Chris 90s Exended)"
PERFORMER "Masterboy & Beatrix Delgado"
REM COMPOSER ""
INDEX 00 26:04:20
INDEX 01 26:05:17
TRACK 09 AUDIO
TITLE "Are You Ready (We Love The 90s) (Empyre One & Enerdizer Remix)"
PERFORMER "Masterboy & Beatrix Delgado"
REM COMPOSER ""
INDEX 00 30:32:35
INDEX 01 30:33:35
TRACK 10 AUDIO
TITLE "Are You Ready (We Love The 90s) (DJ Gollum Feat. DJ Cap Remix)"
PERFORMER "Masterboy & Beatrix Delgado"
REM COMPOSER ""
INDEX 00 34:37:66
INDEX 01 34:38:62
TRACK 11 AUDIO
TITLE "Are You Ready (We Love The 90s) (Klubbingman & Andy Jay Powell Remix)"
PERFORMER "Masterboy & Beatrix Delgado"
REM COMPOSER ""
INDEX 00 39:45:14
INDEX 01 39:46:14
TRACK 12 AUDIO
TITLE "Are You Ready (We Love The 90s) (Chris Decay Extended)"
PERFORMER "Masterboy & Beatrix Delgado"
REM COMPOSER ""
INDEX 00 46:00:64
INDEX 01 46:01:56

Отчёт auCDtect Task manager:


-----------------------

DON'T MODIFY THIS FILE

-----------------------

PERFORMER: auCDtect Task Manager, ver. 1.6.0 RC1 build 1.6.0.1
Copyright (c) 2008-2010 y-soft. All rights reserved
http://y-soft.org

ANALYZER: auCDtect: CD records authenticity detector, version 0.8.2
Copyright (c) 2004 Oleg Berngardt. All rights reserved.
Copyright (c) 2004 Alexander Djourik. All rights reserved.

FILE: Masterboy & Beatrix Delgado - Are you Ready (We love the 90s).flac
Size: 414934031 Hash: C39FA91A5A68D9B1B144AA7CBBBF063E Accuracy: -m0
Conclusion: CDDA 100%
Signature: 834D946C4366FABF21B3C1FB0A36C01906DC2BBB
YouTube
Детали торрента:
Название:Masterboy and Beatrix Delgado - Are You Ready: We Love The 90s (2018) Maxi-Single [FLAC|Lossless|image + .cue] <Euro-House, Eurodance>
Дата добавления:04 Июл 2018 17:35:43
Размер:407 MB
Раздают:1
Качают:0
Форум:Eurodance, Euro-House, Technopop (Lossless)

All rights reserved © 2015-2018