TORRENTS45.XYZ

Скачать Harold Land - Choma (Burn) (1971) 2014, Boplicity [FLAC|Lossless|tracks + .cue] <Post-Bop>


Harold Land - Choma (Burn) (1971) 2014, Boplicity
Жанр: Post-Bop
Издание: Mainstream Records / Boplicity / Ace Records - CDBOPM 026
Продолжительность: 00:36:40

Кодек: FLAC (tracks+.cue)
Битрейт: Lossless
Источник (релизер): ruskaval
Страна-производитель диска: EU
Наличие сканов в содержимом раздачи: да

Треклист:

01. Choma (Burn) [9:57]
02. Our Home [5:52]
03. Black Caucus [10:04]
04. Up and Down [10:47]

Отчёт EAC:


Exact Audio Copy V1.0 beta 3 from 29. August 2011

EAC extraction logfile from 2. September 2014, 12:51

Harold Land / Choma (Burn)

Used drive : ATAPI DVD A DH16ABSH Adapter: 2 ID: 1

Read mode : Secure
Utilize accurate stream : Yes
Defeat audio cache : Yes
Make use of C2 pointers : No

Read offset correction : 6
Overread into Lead-In and Lead-Out : No
Fill up missing offset samples with silence : Yes
Delete leading and trailing silent blocks : No
Null samples used in CRC calculations : Yes
Used interface : Native Win32 interface for Win NT & 2000
Gap handling : Appended to previous track

Used output format : User Defined Encoder
Selected bitrate : 128 kBit/s
Quality : High
Add ID3 tag : No
Command line compressor : C:\Program Files (x86)\Exact Audio Copy\FLAC\FLAC.EXE
Additional command line options : -8 -V -T "ARTIST=%artist%" -T "TITLE=%title%" -T "ALBUM=%albumtitle%" -T "DATE=%year%" -T "TRACKNUMBER=%tracknr%" -T "TOTALTRACKS=%numtracks%" -T "GENRE=%genre%" -T "ALBUMARTIST=%albumartist%" -T "ALBUM ARTIST=%albumartist%" -T "COMMENT=EAC Secure Mode, Test & Copy, AccurateRip, FLAC -8" %source%

TOC of the extracted CD

Track | Start | Length | Start sector | End sector
---------------------------------------------------------
1 | 0:00.00 | 9:56.55 | 0 | 44754
2 | 9:56.55 | 5:52.11 | 44755 | 71165
3 | 15:48.66 | 10:03.65 | 71166 | 116455
4 | 25:52.56 | 10:46.72 | 116456 | 164977

Track 1

Filename C:\Users\owner\Desktop\Harold Land - Choma (1971) [FLAC] {Ace Ex-Mainstream Records}\01 - Choma (Burn).wav

Pre-gap length 0:00:02.00

Peak level 96.5 %
Extraction speed 4.0 X
Track quality 100.0 %
Test CRC ADF61118
Copy CRC ADF61118
Track not present in AccurateRip database
Copy OK

Track 2

Filename C:\Users\owner\Desktop\Harold Land - Choma (1971) [FLAC] {Ace Ex-Mainstream Records}\02 - Our Home.wav

Pre-gap length 0:00:02.23

Peak level 96.5 %
Extraction speed 4.7 X
Track quality 100.0 %
Test CRC 8B8365FB
Copy CRC 8B8365FB
Track not present in AccurateRip database
Copy OK

Track 3

Filename C:\Users\owner\Desktop\Harold Land - Choma (1971) [FLAC] {Ace Ex-Mainstream Records}\03 - Black Caucus.wav

Pre-gap length 0:00:02.10

Peak level 96.5 %
Extraction speed 5.5 X
Track quality 100.0 %
Test CRC 0FFFCC25
Copy CRC 0FFFCC25
Track not present in AccurateRip database
Copy OK

Track 4

Filename C:\Users\owner\Desktop\Harold Land - Choma (1971) [FLAC] {Ace Ex-Mainstream Records}\04 - Up and Down.wav

Pre-gap length 0:00:02.23

Peak level 96.5 %
Extraction speed 6.3 X
Track quality 100.0 %
Test CRC 5CEDB091
Copy CRC 5CEDB091
Track not present in AccurateRip database
Copy OK

None of the tracks are present in the AccurateRip database

No errors occurred

End of status report

==== Log checksum 61BC60584A9BCEF7DBE89A3CFDE3BD9B52940E755D7E9564CECE7A048EC25325 ====

Cue Sheet (.cue):


REM GENRE Jazz
REM DATA 1971
REM DISCID 35089704
REM COMMENT "ExactAudioCopy v1.0b3"
PERFORMER "Harold Land"
TITLE "Choma (Burn)"
FILE "01 - Choma (Burn).wav" WAVE
TRACK 01 AUDIO
TITLE "Choma (Burn)"
PERFORMER "Harold Land"
INDEX 01 00:00:00
TRACK 02 AUDIO
TITLE "Our Home"
PERFORMER "Harold Land"
INDEX 00 09:54:32
FILE "02 - Our Home.wav" WAVE
INDEX 01 00:00:00
TRACK 03 AUDIO
TITLE "Black Caucus"
PERFORMER "Harold Land"
INDEX 00 05:50:01
FILE "03 - Black Caucus.wav" WAVE
INDEX 01 00:00:00
TRACK 04 AUDIO
TITLE "Up and Down"
PERFORMER "Harold Land"
INDEX 00 10:01:42
FILE "04 - Up and Down.wav" WAVE
INDEX 01 00:00:00

Отчёт auCDtect Task manager:


-----------------------

DON'T MODIFY THIS FILE

-----------------------

PERFORMER: auCDtect Task Manager, ver. 1.6.0 RC1 build 1.6.0.1
Copyright (c) 2008-2010 y-soft. All rights reserved
http://y-soft.org

ANALYZER: auCDtect: CD records authenticity detector, version 0.8.2
Copyright (c) 2004 Oleg Berngardt. All rights reserved.
Copyright (c) 2004 Alexander Djourik. All rights reserved.

FILE: 04 - Up and Down.flac
Size: 68997994 Hash: 183D05531C47C923E12123F8705D96CB Accuracy: -m0
Conclusion: CDDA 100%
Signature: 52580B208C0C0E867C8A92220206A1CCE68A39FB
FILE: 03 - Black Caucus.flac
Size: 67567717 Hash: 2C3C1EE2A1B583859F10004B7890897D Accuracy: -m0
Conclusion: CDDA 100%
Signature: 61C6CC0D596BEFD076A4BB29799A08E48EF7C6F9
FILE: 02 - Our Home.flac
Size: 37297045 Hash: 603D97D5FF39D5FA6762663AA26D38FE Accuracy: -m0
Conclusion: CDDA 100%
Signature: 85450C7137D7BB168C8E11BF6AA0393ED18F9B6F
FILE: 01 - Choma (Burn).flac
Size: 65992365 Hash: F0187512195025FF21CE9E550B640D06 Accuracy: -m0
Conclusion: CDDA 99%
Signature: D1427C14C1CE4B42E31B036DE734169894116D3E

Состав

Harold Land - tenor saxophone, flute
Bobby Hutcherson - vibraphone, marimba
Bill Henderson - piano, electric piano
Harold Land, Jr. - piano
Reggie Johnson - bass
Ndugu Chancler, Woodrow 'Sonship' Theus - drums
Детали торрента:
Название:Harold Land - Choma (Burn) (1971) 2014, Boplicity [FLAC|Lossless|tracks + .cue] <Post-Bop>
Дата добавления:27 Июн 2018 13:36:20
Размер:274 MB
Раздают:
Качают:0
Форум:Jazz (Lossless)

All rights reserved © 2015-2019