TORRENTS45.XYZ

Скачать Секретное досье / The Post (2017) BDRip [1080p] ATV


Секретное досье / The Post (2017) BDRip [1080p] ATV
«Truth be told»
Производство: США, Великобритания / Amblin Entertainment, DreamWorks SKG
Жанр: Триллер, Драма, Биография, История

Режиссер: Стивен Спилберг
Продюсер: Элизабет Ханна, Том Карновски, Кристи Макоско Кригер
Актеры: Мэрил Стрип, Том Хэнкс, Сара Полсон, Боб Оденкёрк, Трэйси Леттс, Брэдли Уитфорд, Брюс Гринвуд, Мэттью Рис, Элисон Бри, Кэрри Кун

Описание:
История Кэтрин Грэм, первой женщины-издателя газеты «Вашингтон пост», и редактора Бена Брэдли. Они вступают в гонку с «Нью-Йорк таймс» за право пролить свет на государственные тайны, скрывавшиеся более 30 лет. Журналистам придется преодолеть свои разногласия и рискнуть карьерой и свободой, чтобы мир узнал правду.


Возраст: 16+ (зрителям, достигшим 16 лет)
Рейтинг MPAA: PG-13 (детям до 13 лет просмотр нежелателен)
Дата мировой премьеры: 22 декабря 2017
Дата российской премьеры: 22 февраля 2018, «UPI»

Продолжительность: 01:55:58
Качество видео: BDRip 1080p
Контейнер: M4V
Перевод: Дублированный (License)
Субтитры: Русские (Forced, Full), Английские (Full, SDH)
Видео: H.264, 1920x1038, 1.85:1, 10 000 kbps, 23.976 fps
Аудио#1: AAC, 2.0 ch, 295 kbps, 48.0 kHz Русский | DUB License |
Аудио#2: AAC, 2.0 ch, 296 kbps, 48.0 kHz English | Original |
Аудио#3: AC3, DD 5.1, 6.0 ch, 448 kbps, 48.0 kHz Русский | DUB License |
Аудио#4: AC3, DD 5.1, 6.0 ch, 640 kbps, 48.0 kHz English| Original |

Mediainfo:

Код: выделить все

Общее
Полное имя                               : /Users/The.Post.2017.BDRip.1080p.m4v
Формат                                   : MPEG-4
Идентификатор кодека                     : M4V  (M4V /M4A /mp42/isom)
Размер файла                             : 9,46 Гбайт
Продолжительность                        : 1 ч. 55 м.
Режим общего битрейта                    : Переменный
Общий поток                              : 11,7 Мбит/сек
Название фильма                          : Секретное досье
Исполнитель                              : Steven Spielberg
Режиссёр                                 : Steven Spielberg
Исполнитель                              : Meryl Streep / Tom Hanks / Sarah Paulson / Bob Odenkirk
Продюсер                                 : Steven Spielberg / Kristie Macosko Krieger / Amy Pascal
Жанр                                     : Драма
Тип содержимого                          : Short Film
Дата записи                              : UTC 2018-01-24 08:00:00
Дата кодирования                         : UTC 2018-06-16 06:06:59
Дата пометки                             : UTC 2018-06-16 12:33:12
Авторское право                          : © 2017 Universal Studios.
Обложка                                  : Yes
LongDescription                          : Основано на реальных событиях. Лауреаты премии Оскар Стивен Спилберг, Том Хэнкс и Мэрил Стрип впервые собрались вместе, чтобы рассказать невероятную историю Кэтрин Грэм, первой женщины-издателя газеты «Вашингтон пост», и редактора Бена Брэдли. Они вступают в гонку с «Нью-Йорк таймс» за право пролить свет на государственные тайны, скрывавшиеся более 30 лет. Журналистам придется преодолеть свои разногласия и рискнуть карьерой и свободой, чтобы мир узнал правду.
AppleStoreCountry                        : Russia
AppleStoreCatalogID                      : 1347995729
ContentRating                            : ru-movie|16+|375|

Видео #1
Идентификатор                            : 1
Формат                                   : AVC
Формат/Информация                        : Advanced Video Codec
Профиль формата                          : High@L4.1
Настройки формата                        : CABAC / 4 Ref Frames
Параметр CABAC формата                   : Да
Параметр ReFrames формата                : 4 кадра
Идентификатор кодека                     : avc1
Идентификатор кодека/Информация          : Advanced Video Coding
Продолжительность                        : 1 ч. 55 м.
Битрейт                                  : 10000 Кбит/сек
Ширина                                   : 1920 пикселей
Высота                                   : 1038 пикселей
Соотношение сторон                       : 1,85:1
Режим частоты кадров                     : Переменный
Частота кадров                           : 23,976 (24000/1001) кадра/сек
Минимальная частота кадров               : 23,810 кадра/сек
Максимальная частота кадров              : 24,390 кадра/сек
Цветовое пространство                    : YUV
Субдискретизация насыщенности            : 4:2:0
Битовая глубина                          : 8 бит
Тип развёртки                            : Прогрессивная
Бит/(Пиксели*Кадры)                      : 0.209
Размер потока                            : 8,09 Гбайт (86%)
Библиотека кодирования                   : x264 core 155 r2901 7d0ff22
Настройки программы                      : cabac=1 / ref=4 / deblock=1:-3:-3 / analyse=0x3:0x113 / me=umh / subme=10 / psy=1 / psy_rd=1.05:0.10 / mixed_ref=1 / me_range=48 / chroma_me=1 / trellis=2 / 8x8dct=1 / cqm=0 / deadzone=21,11 / fast_pskip=0 / chroma_qp_offset=-2 / threads=12 / lookahead_threads=1 / sliced_threads=0 / nr=0 / decimate=1 / interlaced=0 / bluray_compat=0 / constrained_intra=0 / bframes=6 / b_pyramid=2 / b_adapt=2 / b_bias=0 / direct=3 / weightb=1 / open_gop=0 / weightp=2 / keyint=250 / keyint_min=23 / scenecut=40 / intra_refresh=0 / rc=2pass / mbtree=0 / bitrate=10000 / ratetol=2.0 / qcomp=0.70 / qpmin=0 / qpmax=69 / qpstep=4 / cplxblur=20.0 / qblur=0.5 / ip_ratio=1.40 / pb_ratio=1.30 / aq=3:1.00
Язык                                     : English
Дата кодирования                         : UTC 2018-06-16 06:06:59
Дата пометки                             : UTC 2018-06-16 12:25:05
Menus                                    : 10,11

Видео #2
Идентификатор                            : 11
Формат                                   : JPEG
Идентификатор кодека                     : jpeg
Продолжительность                        : 1 ч. 55 м.
Вид битрейта                             : Переменный
Битрейт                                  : 1005 бит/сек
Ширина                                   : 640 пикселей
Высота                                   : 346 пикселей
Соотношение сторон                       : 1,85:1
Режим частоты кадров                     : Переменный
Частота кадров                           : 0,003 кадр/сек
Минимальная частота кадров               : 0,003 кадр/сек
Максимальная частота кадров              : 0,007 кадр/сек
Цветовое пространство                    : YUV
Субдискретизация насыщенности            : 4:2:0
Битовая глубина                          : 8 бит
Метод сжатия                             : С потерями
Бит/(Пиксели*Кадры)                      : 1.513
Размер потока                            : 981 Кбайт (0%)
Язык                                     : English
Default                                  : Нет
Дата кодирования                         : UTC 2018-06-16 12:33:10
Дата пометки                             : UTC 2018-06-16 12:33:11
Menu For                                 : 1
ColorSpace_ICC                           : RGB

Аудио #1
Идентификатор                            : 2
Формат                                   : AAC
Формат/Информация                        : Advanced Audio Codec
Профиль формата                          : LC
Идентификатор кодека                     : mp4a-40-2
Продолжительность                        : 1 ч. 55 м.
Вид битрейта                             : Переменный
Битрейт                                  : 295 Кбит/сек
Максимальный битрейт                     : 495 Кбит/сек
Каналы                                   : 2 канала
Расположение каналов                     : Front: L R
Частота                                  : 48,0 КГц
Частота кадров                           : 46,875 кадров/сек (1024 SPF)
Метод сжатия                             : С потерями
Размер потока                            : 245 Мбайт (3%)
Язык                                     : Russian
Default                                  : Да
Alternate group                          : 1
Дата кодирования                         : UTC 2018-06-16 06:06:59
Дата пометки                             : UTC 2018-06-16 12:25:06
Fallback From                            : 4
tagc                                     : public.main-program-content

Аудио #2
Идентификатор                            : 3
Формат                                   : AAC
Формат/Информация                        : Advanced Audio Codec
Профиль формата                          : LC
Идентификатор кодека                     : mp4a-40-2
Продолжительность                        : 1 ч. 55 м.
Вид битрейта                             : Переменный
Битрейт                                  : 296 Кбит/сек
Максимальный битрейт                     : 493 Кбит/сек
Каналы                                   : 2 канала
Расположение каналов                     : Front: L R
Частота                                  : 48,0 КГц
Частота кадров                           : 46,875 кадров/сек (1024 SPF)
Метод сжатия                             : С потерями
Размер потока                            : 245 Мбайт (3%)
Язык                                     : English
Default                                  : Нет
Alternate group                          : 1
Дата кодирования                         : UTC 2018-06-16 06:06:59
Дата пометки                             : UTC 2018-06-16 12:25:06
Fallback From                            : 5
tagc                                     : public.main-program-content

Аудио #3
Идентификатор                            : 4
Формат                                   : AC-3
Формат/Информация                        : Audio Coding 3
Идентификатор кодека                     : ac-3
Продолжительность                        : 1 ч. 55 м.
Вид битрейта                             : Постоянный
Битрейт                                  : 448 Кбит/сек
Каналы                                   : 6 каналов
Расположение каналов                     : Front: L C R, Side: L R, LFE
Частота                                  : 48,0 КГц
Частота кадров                           : 31,250 кадров/сек (1536 SPF)
Битовая глубина                          : 16 бит
Метод сжатия                             : С потерями
Размер потока                            : 371 Мбайт (4%)
Язык                                     : Russian
Service kind                             : Complete Main
Default                                  : Inherited From: 2
Alternate group                          : 1
Дата кодирования                         : UTC 2018-06-16 06:06:59
Дата пометки                             : UTC 2018-06-16 12:25:05
Fallback To                              : 2
tagc                                     : public.main-program-content

Аудио #4
Идентификатор                            : 5
Формат                                   : AC-3
Формат/Информация                        : Audio Coding 3
Идентификатор кодека                     : ac-3
Продолжительность                        : 1 ч. 55 м.
Вид битрейта                             : Постоянный
Битрейт                                  : 640 Кбит/сек
Каналы                                   : 6 каналов
Расположение каналов                     : Front: L C R, Side: L R, LFE
Частота                                  : 48,0 КГц
Частота кадров                           : 31,250 кадров/сек (1536 SPF)
Битовая глубина                          : 16 бит
Метод сжатия                             : С потерями
Размер потока                            : 531 Мбайт (5%)
Язык                                     : English
Service kind                             : Complete Main
Default                                  : Нет
Alternate group                          : 1
Дата кодирования                         : UTC 2018-06-16 06:06:59
Дата пометки                             : UTC 2018-06-16 12:25:05
Fallback To                              : 3
tagc                                     : public.main-program-content

Текст #1
Идентификатор                            : 6
Формат                                   : Timed Text
Режим смешивания                         : sbtl
Идентификатор кодека                     : tx3g
Продолжительность                        : 1 ч. 55 м.
Вид битрейта                             : Переменный
Битрейт                                  : 2 бит/сек
Размер потока                            : 1,68 Кбайт (0%)
Язык                                     : Russian
Default                                  : Да
Forced                                   : Нет
Alternate group                          : 2
Дата кодирования                         : UTC 2018-06-16 06:06:59
Дата пометки                             : UTC 2018-06-16 12:25:06
tagc                                     : public.main-program-content

Текст #2
Идентификатор                            : 7
Формат                                   : Timed Text
Режим смешивания                         : sbtl
Идентификатор кодека                     : tx3g
Продолжительность                        : 1 ч. 49 м.
Вид битрейта                             : Переменный
Битрейт                                  : 148 бит/сек
Размер потока                            : 119 Кбайт (0%)
Язык                                     : Russian
Default                                  : Нет
Forced                                   : Нет
Alternate group                          : 2
Дата кодирования                         : UTC 2018-06-16 06:06:59
Дата пометки                             : UTC 2018-06-16 12:25:06
tagc                                     : public.auxiliary-content

Текст #3
Идентификатор                            : 8
Формат                                   : Timed Text
Режим смешивания                         : sbtl
Идентификатор кодека                     : tx3g
Продолжительность                        : 1 ч. 49 м.
Вид битрейта                             : Переменный
Битрейт                                  : 102 бит/сек
Размер потока                            : 81,6 Кбайт (0%)
Язык                                     : English
Default                                  : Нет
Forced                                   : Нет
Alternate group                          : 2
Дата кодирования                         : UTC 2018-06-16 06:06:59
Дата пометки                             : UTC 2018-06-16 12:25:06
tagc                                     : public.main-program-content

Текст #4
Идентификатор                            : 9
Формат                                   : Timed Text
Режим смешивания                         : sbtl
Идентификатор кодека                     : tx3g
Продолжительность                        : 1 ч. 49 м.
Вид битрейта                             : Переменный
Битрейт                                  : 108 бит/сек
Размер потока                            : 86,3 Кбайт (0%)
Язык                                     : English
Default                                  : Нет
Forced                                   : Нет
Alternate group                          : 2
Дата кодирования                         : UTC 2018-06-16 06:06:59
Дата пометки                             : UTC 2018-06-16 12:25:06
tagc                                     : public.auxiliary-content

Меню
Идентификатор                            : 10
Идентификатор кодека                     : text
Продолжительность                        : 1 ч. 55 м.
Язык                                     : English
Дата кодирования                         : UTC 2018-06-16 12:25:07
Дата пометки                             : UTC 2018-06-16 12:25:07
Вид битрейта                             : CBR
Menu For                                 : 1
00:00:00.000                             : 00:00:00.000
00:05:01.927                             : 00:05:01.927
00:10:08.733                             : 00:10:08.733
00:12:32.794                             : 00:12:32.794
00:16:22.398                             : 00:16:22.398
00:19:19.617                             : 00:19:19.617
00:24:53.325                             : 00:24:53.325
00:30:23.989                             : 00:30:23.989
00:34:51.673                             : 00:34:51.673
00:39:08.680                             : 00:39:08.680
00:43:25.812                             : 00:43:25.812
00:48:20.564                             : 00:48:20.564
00:54:38.692                             : 00:54:38.692
00:59:39.785                             : 00:59:39.785
01:03:49.117                             : 01:03:49.117
01:09:59.570                             : 01:09:59.570
01:14:04.857                             : 01:14:04.857
01:20:20.274                             : 01:20:20.274
01:24:30.732                             : 01:24:30.732
01:30:22.666                             : 01:30:22.667
01:35:23.760                             : 01:35:23.760
01:38:46.546                             : 01:38:46.546
01:43:07.723                             : 01:43:07.723
01:49:27.853                             : 01:49:27.853

iTunes Meta Tags:

Код: выделить все

Name: Секретное досье
Artist: Steven Spielberg
Media Kind: Movie
HD Video: 1080p
Genre: Драма
Release Date: 2018-01-24T08:00:00Z
Long Description: Основано на реальных событиях. Лауреаты премии Оскар Стивен Спилберг, Том Хэнкс и Мэрил Стрип впервые собрались вместе, чтобы рассказать невероятную историю Кэтрин Грэм, первой женщины-издателя газеты «Вашингтон пост», и редактора Бена Брэдли. Они вступают в гонку с «Нью-Йорк таймс» за право пролить свет на государственные тайны, скрывавшиеся более 30 лет. Журналистам придется преодолеть свои разногласия и рискнуть карьерой и свободой, чтобы мир узнал правду.
Rating: ru-movie|16+|375|
Cast: Meryl Streep, Tom Hanks, Sarah Paulson, Bob Odenkirk
Director: Steven Spielberg
Producers: Steven Spielberg, Kristie Macosko Krieger, Amy Pascal
Copyright: © 2017 Universal Studios.
content ID: 1347995729
iTunes Country: 143469
Скриншоты:


Все одноименные релизы в Клубе

Смотреть Online

http://moonwalk.cc/video/8083cdfae4d3852b/iframe
Детали торрента:
Название:Секретное досье / The Post (2017) BDRip [1080p] ATV
Дата добавления:16 Июн 2018 17:32:19
Размер:9,46 GB
Раздают:6
Качают:0
Форум:Архив 4Apple

All rights reserved © 2015-2018