TORRENTS45.XYZ

Скачать BBC: Твое тело. 10 секретов сна / 10 Things You Need To Know About Sleep (Your Body. 10 Secrets of Sleep) (2009) HDTVRip [H.264/1080i-LQ]


BBC: Твое тело. 10 секретов сна / 10 Things You Need To Know About Sleep (2009) HDTVRip [H.264/1080i-LQ]
Производство: Великобритания, BBC
Жанр: Документальный

Участники: Режиссер: Ник Мэттингли, Ричард Брайт

Описание:
Достаточно ли вы спите, и как выглядеть хорошо после недосыпания? Как бороться с бессонницей? Что такое сны, и как ими управлять? Что делать с храпом возлюбленного? С помощью впечатляющих визуальных технологий и новейших научных исследований можно отправиться в фантастическое путешествие по внутреннему миру человеческого тела.

Релиз от: HDclub
Продолжительность: 00:49:48
Качество видео: HDTVRip
Перевод: Двуголосый закадровый, профессиональный
Субтитры: отсутствуют

Видео: AVC/H.264, 1920x1080, ~6170 Kbps
Аудио: AC3, 2 ch, 192 Kbps

Mediainfo:


Общее
Идентификатор : 1 (0x1)
Полное имя : F:\КИНО\10.Things.You.Need.To.Know.About.Sleep.(2009).1080i.HDTV.Rus_HDClub.ts
Формат : MPEG-TS
Размер файла : 2,33 Гбайт
Продолжительность : 49 м. 48 с.
Режим общего битрейта : Переменный
Общий поток : 6698 Кбит/сек
Максимальный общий битрейт : 35,5 Мбит/сек

Видео
Идентификатор : 4113 (0x1011)
Идентификатор меню : 1 (0x1)
Формат : AVC
Формат/Информация : Advanced Video Codec
Профиль формата : High@L4
Настройки формата : CABAC / 4 Ref Frames
Параметр CABAC формата : Да
Параметр RefFrames формата : 4 кадра
Идентификатор кодека : 27
Продолжительность : 49 м. 48 с.
Битрейт : 6173 Кбит/сек
Ширина : 1920 пикселей
Высота : 1080 пикселей
Соотношение сторон : 16:9
Частота кадров : 25,000 кадров/сек
Цветовое пространство : YUV
Субдискретизация насыщенности : 4:2:0
Битовая глубина : 8 бит
Тип развёртки : Чересстрочная
Метод сохранения типа развёртки : Раздельные поля
Порядок развёртки : Верхнее поле первое
Бит/(Пиксели*Кадры) : 0.119
Размер потока : 2,15 Гбайт (92%)
Цветовой диапазон : Limited
Основные цвета : BT.709
Характеристики трансфера : BT.709
Коэффициенты матрицы : BT.709

Аудио
Идентификатор : 4352 (0x1100)
Идентификатор меню : 1 (0x1)
Формат : AC-3
Формат/Информация : Audio Coding 3
Идентификатор кодека : 129
Продолжительность : 49 м. 48 с.
Вид битрейта : Постоянный
Битрейт : 192 Кбит/сек
Каналы : 2 канала
Расположение каналов : Front: L R
Частота : 48,0 КГц
Частота кадров : 31,250 кадров/сек (1536 SPF)
Битовая глубина : 16 бит
Метод сжатия : С потерями
Размер потока : 68,4 Мбайт (3%)
Язык : Russian
ServiceKind/String : Complete Main
Скриншоты:


Все одноименные релизы в Клубе
Детали торрента:
Название:BBC: Твое тело. 10 секретов сна / 10 Things You Need To Know About Sleep (Your Body. 10 Secrets of Sleep) (2009) HDTVRip [H.264/1080i-LQ]
Дата добавления:07 Июн 2018 14:48:24
Размер:2,33 GB
Раздают:8
Качают:0
Форум:BBC

All rights reserved © 2015-2018