TORRENTS45.XYZ

Скачать Жажда смерти / Death Wish (2018) BDRip [H.264/1080p] [Line]


Жажда смерти / Death Wish (2018) BDRip [H.264/1080p] [Line]
Производство: США | Paramount Pictures, Metro-Goldwyn-Mayer, Cave 76
Жанр: Боевик, Триллер, Криминал

Режиссер: Элай Рот
Актеры: Брюс Уиллис, Винсент Д'Онофрио, Элизабет Шу, Камила Морроне, Дин Норрис, Бо Напп, Кимберли Элиз, Лен Кариу, Джек Кеси, Ронни Джин Блевинс

Описание:
Пол Керси — хирург, привыкший вытаскивать людей с того света после криминальных разборок. Но после того, как его жена и дочь становятся жертвами уличной банды, а полиция бездействует, он берет карающий меч правосудия в свои руки. Видео изобретательных убийств преступников покоряют интернет-топы, а среди жителей города расходятся слухи о неуловимом народном мстителе, которому теперь принадлежит весь город. Он мстит бодро, весело и со вкусом.


Возраст: 18+ (зрителям, достигшим 18 лет. запрещено для детей)
Рейтинг MPAA: R (лицам до 17 лет обязательно присутствие взрослого)
Дата мировой премьеры: 1 марта 2018
Дата российской премьеры: 5 апреля 2018

Продолжительность: 01:46:43
Качество видео: BDRip
Перевод: Дублированный (Чистый звук)
Субтитры: Английские

Видео: AVC/H.264, 1920x800, ~12,5 Mbps
Аудио 1: AC3, 2 ch, 192 Kbps - Русский | DUB (Line)
Аудио 2: AC3, 6 ch, 640 Kbps - Русский | DUB (Центральный канал Line / редакция WetY)
Аудио 3: DTS, 6 ch, 1509 Kbps - Английский | Оригинал

Mediainfo:

Общее
Уникальный идентификатор : 206878566462998175964989547463395911577 (0x9BA35CD35F8B14429BC9EE542E0A2799)
Полное имя : Death.Wish.2018.1080p.BDRip.mkv
Формат : Matroska
Версия формата : Version 4 / Version 2
Размер файла : 11,1 Гбайт
Продолжительность : 1 ч. 46 м.
Общий поток : 14,8 Мбит/сек
Дата кодирования : UTC 2018-05-27 11:07:25
Программа кодирования : mkvmerge v8.3.0 ('Over the Horizon') 64bit
Библиотека кодирования : libebml v1.3.1 + libmatroska v1.4.2

Видео
Идентификатор : 1
Формат : AVC
Формат/Информация : Advanced Video Codec
Профиль формата : High@L4.1
Настройки формата : CABAC / 5 Ref Frames
Параметр CABAC формата : Да
Параметр RefFrames формата : 5 кадров
Идентификатор кодека : V_MPEG4/ISO/AVC
Продолжительность : 1 ч. 46 м.
Битрейт : 12,5 Мбит/сек
Ширина : 1920 пикселей
Высота : 800 пикселей
Соотношение сторон : 2,40:1
Режим частоты кадров : Постоянный
Частота кадров : 23,976 (24000/1001) кадра/сек
Цветовое пространство : YUV
Субдискретизация насыщенности : 4:2:0
Битовая глубина : 8 бит
Тип развёртки : Прогрессивная
Бит/(Пиксели*Кадры) : 0.339
Размер потока : 9,31 Гбайт (84%)
Библиотека кодирования : x264 core 148 r2665kMod a01e339
Настройки программы : cabac=1 / ref=5 / deblock=1:-3:-3 / analyse=0x3:0x133 / me=umh / subme=11 / psy=1 / fade_compensate=0.00 / psy_rd=0.85:0.00 / mixed_ref=1 / me_range=48 / chroma_me=1 / trellis=2 / 8x8dct=1 / cqm=0 / deadzone=21,11 / fast_pskip=0 / chroma_qp_offset=-2 / threads=24 / lookahead_threads=4 / sliced_threads=0 / nr=0 / decimate=0 / interlaced=0 / bluray_compat=0 / constrained_intra=0 / fgo=0 / bframes=8 / b_pyramid=2 / b_adapt=2 / b_bias=0 / direct=3 / weightb=1 / open_gop=0 / weightp=2 / keyint=240 / keyint_min=24 / scenecut=40 / intra_refresh=0 / rc=2pass / mbtree=0 / bitrate=12500 / ratetol=1.0 / qcomp=0.70 / qpmin=0 / qpmax=69 / qpstep=4 / cplxblur=20.0 / qblur=0.5 / ip_ratio=1.20 / pb_ratio=1.20 / aq=3:0.80
Default : Да
Forced : Нет

Аудио #1
Идентификатор : 2
Формат : AC-3
Формат/Информация : Audio Coding 3
Идентификатор кодека : A_AC3
Продолжительность : 1 ч. 46 м.
Вид битрейта : Постоянный
Битрейт : 192 Кбит/сек
Каналы : 2 канала
Расположение каналов : Front: L R
Частота : 48,0 КГц
Частота кадров : 31,250 кадров/сек (1536 SPF)
Битовая глубина : 16 бит
Метод сжатия : С потерями
Размер потока : 147 Мбайт (1%)
Заголовок : Line
Язык : Russian
ServiceKind/String : Complete Main
Default : Да
Forced : Нет

Аудио #2
Идентификатор : 3
Формат : AC-3
Формат/Информация : Audio Coding 3
Идентификатор кодека : A_AC3
Продолжительность : 1 ч. 46 м.
Вид битрейта : Постоянный
Битрейт : 640 Кбит/сек
Каналы : 6 каналов
Расположение каналов : Front: L C R, Side: L R, LFE
Частота : 48,0 КГц
Частота кадров : 31,250 кадров/сек (1536 SPF)
Битовая глубина : 16 бит
Метод сжатия : С потерями
Размер потока : 489 Мбайт (4%)
Заголовок : Line (ред. WetY)
Язык : Russian
ServiceKind/String : Complete Main
Default : Нет
Forced : Нет

Аудио #3
Идентификатор : 4
Формат : DTS
Формат/Информация : Digital Theater Systems
Идентификатор кодека : A_DTS
Продолжительность : 1 ч. 46 м.
Вид битрейта : Постоянный
Битрейт : 1509 Кбит/сек
Каналы : 6 каналов
Расположение каналов : Front: L C R, Side: L R, LFE
Частота : 48,0 КГц
Частота кадров : 93,750 кадра/сек (512 SPF)
Битовая глубина : 24 бит
Метод сжатия : С потерями
Размер потока : 1,12 Гбайт (10%)
Язык : English
Default : Нет
Forced : Нет

Текст
Идентификатор : 5
Формат : UTF-8
Идентификатор кодека : S_TEXT/UTF8
Идентификатор кодека/Информация : UTF-8 Plain Text
Продолжительность : 1 ч. 39 м.
Битрейт : 63 бит/сек
ElementCount : 1532
Размер потока : 46,4 Кбайт (0%)
Язык : English
Default : Да
Forced : Нет

Меню
00:00:00.000 : en:00:00:00.000
00:05:39.089 : en:00:05:39.089
00:08:51.239 : en:00:08:51.239
00:11:55.798 : en:00:11:55.798
00:19:12.860 : en:00:19:12.860
00:24:34.139 : en:00:24:34.139
00:28:37.174 : en:00:28:37.174
00:32:45.964 : en:00:32:45.964
00:36:15.840 : en:00:36:15.840
00:43:49.168 : en:00:43:49.168
00:47:10.411 : en:00:47:10.411
00:53:49.518 : en:00:53:49.518
00:56:56.330 : en:00:56:56.330
01:00:27.082 : en:01:00:27.082
01:07:55.154 : en:01:07:55.154
01:11:16.564 : en:01:11:16.564
01:15:52.256 : en:01:15:52.256
01:19:23.926 : en:01:19:23.926
01:22:41.415 : en:01:22:41.415
01:25:43.889 : en:01:25:43.889
01:28:20.837 : en:01:28:20.837
01:31:24.813 : en:01:31:24.813
01:37:14.537 : en:01:37:14.537
01:40:07.585 : en:01:40:07.585

Дополнительная информация:

Спасибо WetY за русскую аудио дорожку !
Скриншоты:


Все одноименные релизы в Клубе

Смотреть Online

http://moonwalk.cc/video/99fd823427af86ac/iframe
Детали торрента:
Название:Жажда смерти / Death Wish (2018) BDRip [H.264/1080p] [Line]
Дата добавления:27 Май 2018 14:25:17
Размер:11,1 GB
Раздают:68
Качают:0
Форум:Архив Видео

All rights reserved © 2015-2018