TORRENTS45.XYZ

Скачать Isao Suzuki & Sunao Wada - Now's The Time (1974) 2014, Three Blind Mice [FLAC|Lossless|tracks + .cue] <Post-Bop>


Isao Suzuki & Sunao Wada - Now's The Time (1974) 2014, Three Blind Mice
Жанр: Post-Bop
Издание: Three Blind Mice - THCD-315
Продолжительность: 00:52:05

Кодек: FLAC (tracks+.cue)
Битрейт: Lossless
Источник (релизер): ruskaval
Страна-производитель диска: Japan
Наличие сканов в содержимом раздачи: да

Треклист:

01. Polka Dots And Moonbeams [09:30]
02. Midnight Sugar [16:05]
03. Now's The Time [26:32]

Отчёт EAC:


Exact Audio Copy V1.0 beta 3 from 29. August 2011

EAC extraction logfile from 11. November 2014, 9:46

Isao Suzuki & Sunao Wada with George Otsuka Trio / Now's The Time

Used drive : ATAPI DVD A DH16ABSH Adapter: 2 ID: 1

Read mode : Secure
Utilize accurate stream : Yes
Defeat audio cache : Yes
Make use of C2 pointers : No

Read offset correction : 6
Overread into Lead-In and Lead-Out : No
Fill up missing offset samples with silence : Yes
Delete leading and trailing silent blocks : No
Null samples used in CRC calculations : Yes
Used interface : Native Win32 interface for Win NT & 2000
Gap handling : Appended to previous track

Used output format : User Defined Encoder
Selected bitrate : 128 kBit/s
Quality : High
Add ID3 tag : No
Command line compressor : C:\Program Files (x86)\Exact Audio Copy\FLAC\FLAC.EXE
Additional command line options : -8 -V -T "ARTIST=%artist%" -T "TITLE=%title%" -T "ALBUM=%albumtitle%" -T "DATE=%year%" -T "TRACKNUMBER=%tracknr%" -T "TOTALTRACKS=%numtracks%" -T "GENRE=%genre%" -T "ALBUMARTIST=%albumartist%" -T "ALBUM ARTIST=%albumartist%" -T "COMMENT=EAC Secure Mode, Test & Copy, AccurateRip, FLAC -8" %source%

TOC of the extracted CD

Track | Start | Length | Start sector | End sector
---------------------------------------------------------
1 | 0:00.00 | 9:29.17 | 0 | 42691
2 | 9:29.17 | 16:04.28 | 42692 | 115019
3 | 25:33.45 | 26:31.09 | 115020 | 234353

Track 1

Filename C:\Users\owner\Desktop\Isao Suzuki & Sunao Wada with George Otsuka Trio - Now's The Time () [FLAC] {Three Blind Mice THCD-315}\01 - Polka Dots And Moonbeams.wav

Pre-gap length 0:00:02.00

Peak level 98.8 %
Extraction speed 3.9 X
Track quality 100.0 %
Test CRC 2CFA2124
Copy CRC 2CFA2124
Track not present in AccurateRip database
Copy OK

Track 2

Filename C:\Users\owner\Desktop\Isao Suzuki & Sunao Wada with George Otsuka Trio - Now's The Time () [FLAC] {Three Blind Mice THCD-315}\02 - Midnight Sugar.wav

Pre-gap length 0:00:01.37

Peak level 98.8 %
Extraction speed 5.0 X
Track quality 100.0 %
Test CRC 1BE4E49B
Copy CRC 1BE4E49B
Track not present in AccurateRip database
Copy OK

Track 3

Filename C:\Users\owner\Desktop\Isao Suzuki & Sunao Wada with George Otsuka Trio - Now's The Time () [FLAC] {Three Blind Mice THCD-315}\03 - Now's The Time.wav

Pre-gap length 0:00:01.21

Peak level 98.8 %
Extraction speed 6.1 X
Track quality 100.0 %
Test CRC 1FBC86DF
Copy CRC 1FBC86DF
Track not present in AccurateRip database
Copy OK

None of the tracks are present in the AccurateRip database

No errors occurred

End of status report

==== Log checksum FA2652D7B42CAE8C0F159D6B83105C9A9030E86D0B9A90FD0690E7825E0017A3 ====

Cue Sheet (.cue):


REM DISCID 1D0C3403
REM COMMENT "ExactAudioCopy v1.0b3"
PERFORMER "Isao Suzuki & Sunao Wada with George Otsuka Trio"
TITLE "Now's The Time"
FILE "01 - Polka Dots And Moonbeams.wav" WAVE
TRACK 01 AUDIO
TITLE "Polka Dots And Moonbeams"
PERFORMER "Isao Suzuki & Sunao Wada with George Otsuka Trio"
INDEX 01 00:00:00
TRACK 02 AUDIO
TITLE "Midnight Sugar"
PERFORMER "Isao Suzuki & Sunao Wada with George Otsuka Trio"
INDEX 00 09:27:55
FILE "02 - Midnight Sugar.wav" WAVE
INDEX 01 00:00:00
TRACK 03 AUDIO
TITLE "Now's The Time"
PERFORMER "Isao Suzuki & Sunao Wada with George Otsuka Trio"
INDEX 00 16:03:07
FILE "03 - Now's The Time.wav" WAVE
INDEX 01 00:00:00

Отчёт auCDtect Task manager:


-----------------------

DON'T MODIFY THIS FILE

-----------------------

PERFORMER: auCDtect Task Manager, ver. 1.6.0 RC1 build 1.6.0.1
Copyright (c) 2008-2010 y-soft. All rights reserved
http://y-soft.org

ANALYZER: auCDtect: CD records authenticity detector, version 0.8.2
Copyright (c) 2004 Oleg Berngardt. All rights reserved.
Copyright (c) 2004 Alexander Djourik. All rights reserved.

FILE: 03 - Now's The Time.flac
Size: 175484249 Hash: FE53C6F3AD94731BC412FDD34F7BCA65 Accuracy: -m0
Conclusion: MPEG 73%
Signature: 7AF181BF1CC60FA53D6A6E4AC68D06171B3B0B2A
FILE: 02 - Midnight Sugar.flac
Size: 96165914 Hash: BFC34FE0573361F19DFA8920371812D9 Accuracy: -m0
Conclusion: CDDA 100%
Signature: FDE89822FF3FD2B70C5BECB23CD875507E7B87BA
FILE: 01 - Polka Dots And Moonbeams.flac
Size: 55528648 Hash: 8D4522E06D0EA57E1216494976129CFB Accuracy: -m0
Conclusion: CDDA 100%
Signature: 775670449AAA0CED9B4BA22C97E0BCDC6F0394CD

Спектрограмма:



Состав

Isao Suzuki - cello
Sunao Wada - guitar
Tsuyoshi Yamamoto - piano
Isoo Fukui - bass
Tetsujiro Obara - drums
Yoshio Otomo - alto sax
Kenji Mori - alto sax
Takao Uematsu - tenor sax
Mabumi Yamaguchi - tenor sax
Toshiyuki Daitoku - electric piano
Mitsuaki Furuno - bass
George Otsuka - drums
Детали торрента:
Название:Isao Suzuki & Sunao Wada - Now's The Time (1974) 2014, Three Blind Mice [FLAC|Lossless|tracks + .cue] <Post-Bop>
Дата добавления:21 Май 2018 09:59:19
Размер:323 MB
Раздают:2
Качают:0
Форум:Jazz (Lossless)

All rights reserved © 2015-2019