TORRENTS45.XYZ

Скачать Takao Uematsu - Straight Ahead (1977) 2010, Art Union [FLAC|Lossless|tracks + .cue] <Jazz Fusion, Post-Bop>


Takao Uematsu - Straight Ahead (1977) 2010, Art Union
Жанр: Jazz Fusion, Post-Bop
Издание: Art Union - ARTD-5551
Продолжительность: 00:38:19

Кодек: FLAC (tracks+.cue)
Битрейт: Lossless
Источник (релизер): mvns
Страна-производитель диска: Japan
Наличие сканов в содержимом раздачи: нет

Треклист:

01. White Fire [07:50]
02. Mysterious Jump [08:32]
03. Fancy Free [02:34]
04. Afro Blue [05:17]
05. Invitation [05:01]
06. Samba to Kiki [09:08]

Отчёт XLD:


X Lossless Decoder version 20170729 (150.3)

XLD extraction logfile from 2018-01-19 11:50:04 -0800

Takao Uematsu (植松孝夫) / Straight Ahead

Used drive : TSSTcorp CDDVDW SE-218CB (revision MF00)
Media type : Pressed CD

Ripper mode : XLD Secure Ripper
Disable audio cache : OK for the drive with a cache less than 1375KiB
Make use of C2 pointers : NO
Read offset correction : 6
Max retry count : 100
Gap status : Analyzed, Appended (except HTOA)

TOC of the extracted CD
Track | Start | Length | Start sector | End sector
---------------------------------------------------------
1 | 00:00:00 | 07:49:27 | 0 | 35201
2 | 07:49:27 | 08:31:16 | 35202 | 73542
3 | 16:20:43 | 02:33:44 | 73543 | 85061
4 | 18:54:12 | 05:16:18 | 85062 | 108779
5 | 24:10:30 | 05:00:57 | 108780 | 131336
6 | 29:11:12 | 09:07:18 | 131337 | 172379

AccurateRip Summary (DiscID: 00094060-00305e48-4808fa06)
Track 01 : OK (v2, confidence 1/1)
Track 02 : OK (v2, confidence 1/1)
Track 03 : OK (v2, confidence 1/1)
Track 04 : OK (v2, confidence 1/1)
Track 05 : OK (v2, confidence 1/1)
Track 06 : OK (v2, confidence 1/1)
->All tracks accurately ripped.

All Tracks
Album gain : -9.09 dB
Peak : 0.988617
Statistics
Read error : 0
Jitter error (maybe fixed) : 0
Retry sector count : 0
Damaged sector count : 0

Track 01
Filename : /Volumes/Multimedia/XLD/Takao Uematsu (植松孝夫) - (1977) Straight Ahead [FLAC]/01 - Takao Uematsu (植松孝夫) - White Fire.flac
Pre-gap length : 00:02:00

Track gain : -9.15 dB
Peak : 0.988617
CRC32 hash (test run) : 9A9B71AD
CRC32 hash : 9A9B71AD
CRC32 hash (skip zero) : 9D770989
AccurateRip v1 signature : D0D6868A
AccurateRip v2 signature : D9D61167
->Accurately ripped (v2, confidence 1/1)
Statistics
Read error : 0
Jitter error (maybe fixed) : 0
Retry sector count : 0
Damaged sector count : 0

Track 02
Filename : /Volumes/Multimedia/XLD/Takao Uematsu (植松孝夫) - (1977) Straight Ahead [FLAC]/02 - Takao Uematsu (植松孝夫) - Mysterious Jump.flac
Pre-gap length : 00:02:25

Track gain : -8.64 dB
Peak : 0.988617
CRC32 hash (test run) : 7C3AC399
CRC32 hash : 7C3AC399
CRC32 hash (skip zero) : 3E8D2123
AccurateRip v1 signature : 38927038
AccurateRip v2 signature : 667C776D
->Accurately ripped (v2, confidence 1/1)
Statistics
Read error : 0
Jitter error (maybe fixed) : 0
Retry sector count : 0
Damaged sector count : 0

Track 03
Filename : /Volumes/Multimedia/XLD/Takao Uematsu (植松孝夫) - (1977) Straight Ahead [FLAC]/03 - Takao Uematsu (植松孝夫) - Fancy Free.flac
Pre-gap length : 00:04:25

Track gain : -8.34 dB
Peak : 0.988617
CRC32 hash (test run) : 1DE57F44
CRC32 hash : 1DE57F44
CRC32 hash (skip zero) : 58361A5E
AccurateRip v1 signature : 50D8CC76
AccurateRip v2 signature : F7D672A3
->Accurately ripped (v2, confidence 1/1)
Statistics
Read error : 0
Jitter error (maybe fixed) : 0
Retry sector count : 0
Damaged sector count : 0

Track 04
Filename : /Volumes/Multimedia/XLD/Takao Uematsu (植松孝夫) - (1977) Straight Ahead [FLAC]/04 - Takao Uematsu (植松孝夫) - Afro Blue.flac
Pre-gap length : 00:02:25

Track gain : -9.31 dB
Peak : 0.988617
CRC32 hash (test run) : 99A67FCC
CRC32 hash : 99A67FCC
CRC32 hash (skip zero) : F67BCE83
AccurateRip v1 signature : A0A692D1
AccurateRip v2 signature : 4240F939
->Accurately ripped (v2, confidence 1/1)
Statistics
Read error : 0
Jitter error (maybe fixed) : 0
Retry sector count : 0
Damaged sector count : 0

Track 05
Filename : /Volumes/Multimedia/XLD/Takao Uematsu (植松孝夫) - (1977) Straight Ahead [FLAC]/05 - Takao Uematsu (植松孝夫) - Invitation.flac
Pre-gap length : 00:04:25

Track gain : -9.01 dB
Peak : 0.988617
CRC32 hash (test run) : 3125A0E5
CRC32 hash : 3125A0E5
CRC32 hash (skip zero) : E2F2C5A8
AccurateRip v1 signature : FA4E82E7
AccurateRip v2 signature : 587C475F
->Accurately ripped (v2, confidence 1/1)
Statistics
Read error : 0
Jitter error (maybe fixed) : 0
Retry sector count : 0
Damaged sector count : 0

Track 06
Filename : /Volumes/Multimedia/XLD/Takao Uematsu (植松孝夫) - (1977) Straight Ahead [FLAC]/06 - Takao Uematsu (植松孝夫) - Samba To Kiki.flac
Pre-gap length : 00:03:25

Track gain : -9.29 dB
Peak : 0.988617
CRC32 hash (test run) : 4AEFDD11
CRC32 hash : 4AEFDD11
CRC32 hash (skip zero) : C3AAA1B0
AccurateRip v1 signature : A7B44BD8
AccurateRip v2 signature : 9CE3A6FD
->Accurately ripped (v2, confidence 1/1)
Statistics
Read error : 0
Jitter error (maybe fixed) : 0
Retry sector count : 0
Damaged sector count : 0

No errors occurred

End of status report

-----BEGIN XLD SIGNATURE-----
k0fBcjFfVkwAhrVQVsh2RM5WLdevVB589UfR1qzVab98tyAZz4htbXoLhziSQpDV11aiPyXsmBvATq.wPmz0l5yyB4MHSL4h77DF5.q
-----END XLD SIGNATURE-----

Cue Sheet (.cue):


TITLE "Straight Ahead"
PERFORMER "Takao Uematsu"
REM GENRE "Jazz"
REM DATE "1977"
REM DISCID 4808FA06
REM REPLAYGAIN_ALBUM_GAIN -9.09 dB
REM REPLAYGAIN_ALBUM_PEAK 0.988617
FILE "01 - White Fire.flac" WAVE
TRACK 01 AUDIO
TITLE "White Fire"
REM REPLAYGAIN_TRACK_GAIN -9.15 dB
REM REPLAYGAIN_TRACK_PEAK 0.988617
INDEX 01 00:00:00
TRACK 02 AUDIO
TITLE "Mysterious Jump"
REM REPLAYGAIN_TRACK_GAIN -8.64 dB
REM REPLAYGAIN_TRACK_PEAK 0.988617
INDEX 00 07:47:02
FILE "02 - Mysterious Jump.flac" WAVE
INDEX 01 00:00:00
TRACK 03 AUDIO
TITLE "Fancy Free"
REM REPLAYGAIN_TRACK_GAIN -8.34 dB
REM REPLAYGAIN_TRACK_PEAK 0.988617
INDEX 00 08:26:66
FILE "03 - Fancy Free.flac" WAVE
INDEX 01 00:00:00
TRACK 04 AUDIO
TITLE "Afro Blue"
REM REPLAYGAIN_TRACK_GAIN -9.31 dB
REM REPLAYGAIN_TRACK_PEAK 0.988617
INDEX 00 02:31:19
FILE "04 - Afro Blue.flac" WAVE
INDEX 01 00:00:00
TRACK 05 AUDIO
TITLE "Invitation"
REM REPLAYGAIN_TRACK_GAIN -9.01 dB
REM REPLAYGAIN_TRACK_PEAK 0.988617
INDEX 00 05:11:68
FILE "05 - Invitation.flac" WAVE
INDEX 01 00:00:00
TRACK 06 AUDIO
TITLE "Samba to Kiki"
REM REPLAYGAIN_TRACK_GAIN -9.29 dB
REM REPLAYGAIN_TRACK_PEAK 0.988617
INDEX 00 04:57:32
FILE "06 - Samba to Kiki.flac" WAVE
INDEX 01 00:00:00

Отчёт auCDtect Task manager:


-----------------------

DON'T MODIFY THIS FILE

-----------------------

PERFORMER: auCDtect Task Manager, ver. 1.6.0 RC1 build 1.6.0.1
Copyright (c) 2008-2010 y-soft. All rights reserved
http://y-soft.org

ANALYZER: auCDtect: CD records authenticity detector, version 0.8.2
Copyright (c) 2004 Oleg Berngardt. All rights reserved.
Copyright (c) 2004 Alexander Djourik. All rights reserved.

FILE: 06 - Samba to Kiki.flac
Size: 66442566 Hash: 8B1BB299FA99706E3B186937A2BEED07 Accuracy: -m0
Conclusion: CDDA 100%
Signature: B9A09E94C99CF072856B6C0EAE95B0D85DDC1FB2
FILE: 05 - Invitation.flac
Size: 33004697 Hash: 9B587EE3D6FB1766A6E2549A2F1D43AE Accuracy: -m0
Conclusion: CDDA 100%
Signature: AAB4479A08FA4C0E302E9E39D78A3BD26390A467
FILE: 04 - Afro Blue.flac
Size: 36982730 Hash: A717E222C117DB89B3F9F28AB6D8A3D5 Accuracy: -m0
Conclusion: CDDA 100%
Signature: ACB8632D38481220B7854190EA40E3E6D7BC70B9
FILE: 03 - Fancy Free.flac
Size: 13975778 Hash: CAB9A0F3D352A37A172707B1F964E451 Accuracy: -m0
Conclusion: CDDA 100%
Signature: 557F45AB045C5CC42A6436D2367CB5B425D8640B
FILE: 02 - Mysterious Jump.flac
Size: 56966313 Hash: E249263377664FD126EB9978E3E55A5A Accuracy: -m0
Conclusion: CDDA 100%
Signature: FD533EE20CE55C07108E3F5EEC7C461CC02A1526
FILE: 01 - White Fire.flac
Size: 57297241 Hash: E6594B4BC6F6F920F07CB92CC2906B77 Accuracy: -m0
Conclusion: CDDA 100%
Signature: 8B333906D70539F4372532E941BD4E99626E8CD4

Состав

Takao Uematsu - tenor saxophone
Hitoshi Okano - trumpet
Mikio Masuda - acoustic piano, electric piano, synthesizer
Motohiko Hamase - electric bass, acoustic bass
Arihide Kurata - drums
Tatsuji Yokoyama - percussion

Recorded at Onkio Haus, Tokyo on October 12, 1977.
Детали торрента:
Название:Takao Uematsu - Straight Ahead (1977) 2010, Art Union [FLAC|Lossless|tracks + .cue] <Jazz Fusion, Post-Bop>
Дата добавления:18 Май 2018 11:17:12
Размер:253 MB
Раздают:3
Качают:0
Форум:Jazz (Lossless)

All rights reserved © 2015-2019