TORRENTS45.XYZ

Скачать Takao Uematsu Quartet & Quintet - Debut (1970) 2013, Three Blind Mice [FLAC|Lossless|tracks + .cue] <Jazz Fusion, Post-Bop>


Takao Uematsu Quartet & Quintet - Debut (1970) 2013, Three Blind Mice
Жанр: Jazz Fusion, Post-Bop
Издание: Think! Records / Three Blind Mice - THCD-218
Продолжительность: 00:37:31

Кодек: FLAC (tracks+.cue)
Битрейт: Lossless
Источник (релизер): wikieup
Страна-производитель диска: Japan
Наличие сканов в содержимом раздачи: да

Треклист:

01. Inside Parts [11:14]
02. Stella by Starlight [09:37]
03. T.I. [08:51]
04. Sleep, My Love [07:49]

Отчёт EAC:


Exact Audio Copy V1.0 beta 3 from 29. August 2011

EAC extraction logfile from 26. September 2014, 13:04

Takao Uematsu Quartet/Quintet / Debut [2013 Reissue]

Used drive : TSSTcorpDVD-ROM TS-U333B Adapter: 0 ID: 1

Read mode : Secure
Utilize accurate stream : Yes
Defeat audio cache : Yes
Make use of C2 pointers : No

Read offset correction : 6
Overread into Lead-In and Lead-Out : No
Fill up missing offset samples with silence : Yes
Delete leading and trailing silent blocks : No
Null samples used in CRC calculations : Yes
Used interface : Native Win32 interface for Win NT & 2000
Gap handling : Appended to previous track

Used output format : User Defined Encoder
Selected bitrate : 1024 kBit/s
Quality : High
Add ID3 tag : No
Command line compressor : C:\Program Files\Exact Audio Copy\Flac\flac.exe
Additional command line options : -8 -V -T "ARTIST=%artist%" -T "TITLE=%title%" -T "ALBUM=%albumtitle%" -T "DATE=%year%" -T "TRACKNUMBER=%tracknr%" -T "GENRE=%genre%" -T "PERFORMER=%albuminterpret%" -T "COMPOSER=%composer%" %haslyrics%--tag-from-file=LYRICS="%lyricsfile%"%haslyrics% -T "ALBUMARTIST=%albumartist%" -T "DISCNUMBER=%cdnumber%" -T "TOTALDISCS=%totalcds%" -T "TOTALTRACKS=%numtracks%" -T "COMMENT=%comment%" %source% -o %dest%

TOC of the extracted CD

Track | Start | Length | Start sector | End sector
---------------------------------------------------------
1 | 0:00.00 | 11:13.45 | 0 | 50519
2 | 11:13.45 | 9:36.73 | 50520 | 93792
3 | 20:50.43 | 8:50.67 | 93793 | 133609
4 | 29:41.35 | 7:48.72 | 133610 | 168781

Track 1

Filename C:\EAC Rips\01 - Inside Parts.wav

Pre-gap length 0:00:02.00

Peak level 100.0 %
Extraction speed 2.8 X
Track quality 99.9 %
Test CRC 72B499D7
Copy CRC 72B499D7
Accurately ripped (confidence 1) [CD5AEBE8] (AR v2)
Copy OK

Track 2

Filename C:\EAC Rips\02 - Stella By Starlight.wav

Pre-gap length 0:00:03.37

Peak level 100.0 %
Extraction speed 3.7 X
Track quality 100.0 %
Test CRC ECBB6C31
Copy CRC ECBB6C31
Accurately ripped (confidence 1) [80F14422] (AR v2)
Copy OK

Track 3

Filename C:\EAC Rips\03 - T.I..wav

Pre-gap length 0:00:03.60

Peak level 100.0 %
Extraction speed 3.7 X
Track quality 99.9 %
Test CRC F5A4C547
Copy CRC F5A4C547
Accurately ripped (confidence 1) [DD3F9DF8] (AR v2)
Copy OK

Track 4

Filename C:\EAC Rips\04 - Sleep, My Love.wav

Pre-gap length 0:00:02.77

Peak level 100.0 %
Extraction speed 4.5 X
Track quality 100.0 %
Test CRC 23392C6C
Copy CRC 23392C6C
Accurately ripped (confidence 1) [05BCEA0B] (AR v2)
Copy OK

All tracks accurately ripped

No errors occurred

End of status report

==== Log checksum 95ECC02072A50CC9782D4FE3A2A553AD3E5E0D865D442587BBA800C87A6A480A ====

Cue Sheet (.cue):


REM GENRE Jazz
REM DATE 1970
REM DISCID 3108CA04
REM COMMENT "ExactAudioCopy v1.0b3"
PERFORMER "Takao Uematsu"
TITLE "Debut"
FILE "01 - Inside Parts.wav" WAVE
TRACK 01 AUDIO
TITLE "Inside Parts"
PERFORMER "Takao Uematsu"
INDEX 01 00:00:00
TRACK 02 AUDIO
TITLE "Stella by Starlight"
PERFORMER "Takao Uematsu"
INDEX 00 11:10:17
FILE "02 - Stella by Starlight.wav" WAVE
INDEX 01 00:00:00
TRACK 03 AUDIO
TITLE "T.I."
PERFORMER "Takao Uematsu"
INDEX 00 09:33:28
FILE "03 - T.I..wav" WAVE
INDEX 01 00:00:00
TRACK 04 AUDIO
TITLE "Sleep, My Love"
PERFORMER "Takao Uematsu"
INDEX 00 08:48:09
FILE "04 - Sleep, My Love.wav" WAVE
INDEX 01 00:00:00

Отчёт auCDtect Task manager:


-----------------------

DON'T MODIFY THIS FILE

-----------------------

PERFORMER: auCDtect Task Manager, ver. 1.6.0 RC1 build 1.6.0.1
Copyright (c) 2008-2010 y-soft. All rights reserved
http://y-soft.org

ANALYZER: auCDtect: CD records authenticity detector, version 0.8.2
Copyright (c) 2004 Oleg Berngardt. All rights reserved.
Copyright (c) 2004 Alexander Djourik. All rights reserved.

FILE: 04 - Sleep, My Love.flac
Size: 52542584 Hash: 25D301910F8CD2F4067F45AC7D122AF1 Accuracy: -m0
Conclusion: CDDA 100%
Signature: C989EE4849C43F9CADC41327ED8581C83CCA9D97
FILE: 03 - T.I..flac
Size: 58395234 Hash: D1A98B0D887021008E5BA97E1F494EE5 Accuracy: -m0
Conclusion: CDDA 86%
Signature: 7166770210A5AFCFD40384F3AE8943E9C68D2A3F
FILE: 02 - Stella by Starlight.flac
Size: 63782672 Hash: 22A3F082173B0D12636256CB3CA50798 Accuracy: -m0
Conclusion: CDDA 100%
Signature: 30BE2281C724A8AC90D2993446F1B8DBA41B8A57
FILE: 01 - Inside Parts.flac
Size: 76549713 Hash: 0CAADC28D1EA96ED62E68F8FBFDB0EF8 Accuracy: -m0
Conclusion: MPEG 99%
Signature: 6358BB96D7CD925E299D309660581B4B0DE1829A

Спектрограмма:



Состав

Takao Uematsu - tenor saxophone
Takashi Imai - trombone (3,4)
Sadayasu Fujii - Fender piano
Yoshio Suzuki - bass
George Otsuka - drums

Recorded at Nippon Hoso (1st Studio), Tokyo on November 19, 1970.
Детали торрента:
Название:Takao Uematsu Quartet & Quintet - Debut (1970) 2013, Three Blind Mice [FLAC|Lossless|tracks + .cue] <Jazz Fusion, Post-Bop>
Дата добавления:17 Май 2018 18:47:32
Размер:240 MB
Раздают:
Качают:0
Форум:Jazz (Lossless)

All rights reserved © 2015-2019