TORRENTS45.XYZ

Скачать Arctic Monkeys - Tranquility Base Hotel & Casino (2018) [FLAC|Lossless|tracks + .cue] <Alternative, Indie Rock>


Arctic Monkeys - Tranquility Base Hotel & Casino (2018)
Жанр: Alternative, Indie Rock
Издание: Domino - WIGCD339
Продолжительность: 00:40:51

Кодек: FLAC
Битрейт: Lossless
Тип рипа: tracks + .cue

Треклист:
01. Star Treatment (05:54)
02. One Point Perspective (03:28)
03. American Sports (02:38)
04. Tranquility Base Hotel & Casino (03:31)
05. Golden Trunks (02:53)
06. Four out of Five (05:12)
07. The World's First Ever Monster Truck Front Flip (03:00)
08. Science Fiction (03:05)
09. She Looks Like Fun (03:02)
10. Batphone (04:31)
11. The Ultracheese (03:37)

Отчёт EAC:


Exact Audio Copy V1.3 from 2. September 2016

EAC extraction logfile from 7. May 2018, 15:35

Arctic Monkeys / Tranquility Base Hotel & Casino

Used drive : TSSTcorpCDDVDW SE-218GN Adapter: 1 ID: 0

Read mode : Secure
Utilize accurate stream : Yes
Defeat audio cache : Yes
Make use of C2 pointers : No

Read offset correction : 6
Overread into Lead-In and Lead-Out : No
Fill up missing offset samples with silence : Yes
Delete leading and trailing silent blocks : No
Null samples used in CRC calculations : Yes
Used interface : Native Win32 interface for Win NT & 2000
Gap handling : Appended to previous track

Used output format : User Defined Encoder
Selected bitrate : 1024 kBit/s
Quality : High
Add ID3 tag : No
Command line compressor : C:\Program Files (x86)\Exact Audio Copy\Flac\flac.exe
Additional command line options : -8 -e -p -V -T "ARTIST=%artist%" -T "TITLE=%title%" -T "ALBUM=%albumtitle%" -T "DATE=%year%" -T "TRACKNUMBER=%tracknr%" -T "GENRE=%genre%" -T "PERFORMER=%albuminterpret%" -T "COMPOSER=%composer%" %haslyrics%--tag-from-file=LYRICS="%lyricsfile%"%haslyrics% -T "ALBUMARTIST=%albumartist%" -T "DISCNUMBER=%cdnumber%" -T "TOTALDISCS=%totalcds%" -T "TOTALTRACKS=%numtracks%" -T "COMMENT=%comment%" %source% -o %dest%

TOC of the extracted CD

Track | Start | Length | Start sector | End sector
---------------------------------------------------------
1 | 0:00.00 | 5:54.48 | 0 | 26597
2 | 5:54.48 | 3:28.48 | 26598 | 42245
3 | 9:23.21 | 2:38.03 | 42246 | 54098
4 | 12:01.24 | 3:32.07 | 54099 | 70005
5 | 15:33.31 | 2:53.47 | 70006 | 83027
6 | 18:27.03 | 5:12.26 | 83028 | 106453
7 | 23:39.29 | 3:00.01 | 106454 | 119954
8 | 26:39.30 | 3:05.68 | 119955 | 133897
9 | 29:45.23 | 3:02.42 | 133898 | 147589
10 | 32:47.65 | 4:31.46 | 147590 | 167960
11 | 37:19.36 | 3:37.54 | 167961 | 184289

Track 1

Filename C:\Users\Ringo\Desktop\Uploads\Arctic Monkeys - Tranquility Base Hotel & Casino (2018) [CD FLAC]\01 Star Treatment.wav

Pre-gap length 0:00:02.00

Peak level 96.6 %
Extraction speed 2.8 X
Track quality 100.0 %
Test CRC 83A09248
Copy CRC 83A09248
Track not present in AccurateRip database
Copy OK

Track 2

Filename C:\Users\Ringo\Desktop\Uploads\Arctic Monkeys - Tranquility Base Hotel & Casino (2018) [CD FLAC]\02 One Point Perspective.wav

Peak level 96.6 %
Extraction speed 3.0 X
Track quality 100.0 %
Test CRC 18ECFEE5
Copy CRC 18ECFEE5
Track not present in AccurateRip database
Copy OK

Track 3

Filename C:\Users\Ringo\Desktop\Uploads\Arctic Monkeys - Tranquility Base Hotel & Casino (2018) [CD FLAC]\03 American Sports.wav

Peak level 96.6 %
Extraction speed 2.3 X
Track quality 99.9 %
Test CRC 7D97F753
Copy CRC 7D97F753
Track not present in AccurateRip database
Copy OK

Track 4

Filename C:\Users\Ringo\Desktop\Uploads\Arctic Monkeys - Tranquility Base Hotel & Casino (2018) [CD FLAC]\04 Tranquility Base Hotel & Casino.wav

Peak level 96.6 %
Extraction speed 3.3 X
Track quality 100.0 %
Test CRC D47A84E4
Copy CRC D47A84E4
Track not present in AccurateRip database
Copy OK

Track 5

Filename C:\Users\Ringo\Desktop\Uploads\Arctic Monkeys - Tranquility Base Hotel & Casino (2018) [CD FLAC]\05 Golden Trunks.wav

Peak level 96.6 %
Extraction speed 2.6 X
Track quality 99.9 %
Test CRC 09FF46FB
Copy CRC 09FF46FB
Track not present in AccurateRip database
Copy OK

Track 6

Filename C:\Users\Ringo\Desktop\Uploads\Arctic Monkeys - Tranquility Base Hotel & Casino (2018) [CD FLAC]\06 Four Out of Five.wav

Peak level 96.6 %
Extraction speed 3.8 X
Track quality 100.0 %
Test CRC 77880926
Copy CRC 77880926
Track not present in AccurateRip database
Copy OK

Track 7

Filename C:\Users\Ringo\Desktop\Uploads\Arctic Monkeys - Tranquility Base Hotel & Casino (2018) [CD FLAC]\07 The World's First Ever Monster Truck Front Flip.wav

Peak level 96.6 %
Extraction speed 3.9 X
Track quality 100.0 %
Test CRC E21E04CF
Copy CRC E21E04CF
Track not present in AccurateRip database
Copy OK

Track 8

Filename C:\Users\Ringo\Desktop\Uploads\Arctic Monkeys - Tranquility Base Hotel & Casino (2018) [CD FLAC]\08 Science Fiction.wav

Peak level 96.6 %
Extraction speed 3.1 X
Track quality 99.9 %
Test CRC FDD8AB42
Copy CRC FDD8AB42
Track not present in AccurateRip database
Copy OK

Track 9

Filename C:\Users\Ringo\Desktop\Uploads\Arctic Monkeys - Tranquility Base Hotel & Casino (2018) [CD FLAC]\09 She Looks Like Fun.wav

Peak level 96.6 %
Extraction speed 3.1 X
Track quality 99.9 %
Test CRC 8E344F12
Copy CRC 8E344F12
Track not present in AccurateRip database
Copy OK

Track 10

Filename C:\Users\Ringo\Desktop\Uploads\Arctic Monkeys - Tranquility Base Hotel & Casino (2018) [CD FLAC]\10 Batphone.wav

Peak level 96.6 %
Extraction speed 4.4 X
Track quality 100.0 %
Test CRC D774131E
Copy CRC D774131E
Track not present in AccurateRip database
Copy OK

Track 11

Filename C:\Users\Ringo\Desktop\Uploads\Arctic Monkeys - Tranquility Base Hotel & Casino (2018) [CD FLAC]\11 The Ultracheese.wav

Peak level 96.6 %
Extraction speed 4.6 X
Track quality 100.0 %
Test CRC 9694CD0F
Copy CRC 9694CD0F
Track not present in AccurateRip database
Copy OK

None of the tracks are present in the AccurateRip database

No errors occurred

End of status report

---- CUETools DB Plugin V2.1.6

[CTDB TOCID: NxJnDUNC7sdCAfILXkhZi2QoACY-] disk not present in database
Submit result: NxJnDUNC7sdCAfILXkhZi2QoACY- has been uploaded

==== Log checksum 9FB78C4D5832AEB9E1113B47D1AD38F49D81DDBE49EADDB064EBA65E206DFBE4 ====

Cue Sheet (.cue):


REM GENRE "Indie Rock"
REM DATE 2018
REM DISCID 9109990B
REM COMMENT "ExactAudioCopy v1.3"
PERFORMER "Arctic Monkeys"
TITLE "Tranquility Base Hotel & Casino"
REM COMPOSER ""
FILE "01 Star Treatment.wav" WAVE
TRACK 01 AUDIO
TITLE "Star Treatment"
PERFORMER "Arctic Monkeys"
REM COMPOSER ""
FLAGS DCP
INDEX 01 00:00:00
FILE "02 One Point Perspective.wav" WAVE
TRACK 02 AUDIO
TITLE "One Point Perspective"
PERFORMER "Arctic Monkeys"
REM COMPOSER ""
FLAGS DCP
INDEX 01 00:00:00
FILE "03 American Sports.wav" WAVE
TRACK 03 AUDIO
TITLE "American Sports"
PERFORMER "Arctic Monkeys"
REM COMPOSER ""
FLAGS DCP
INDEX 01 00:00:00
FILE "04 Tranquility Base Hotel & Casino.wav" WAVE
TRACK 04 AUDIO
TITLE "Tranquility Base Hotel & Casino"
PERFORMER "Arctic Monkeys"
REM COMPOSER ""
FLAGS DCP
INDEX 01 00:00:00
FILE "05 Golden Trunks.wav" WAVE
TRACK 05 AUDIO
TITLE "Golden Trunks"
PERFORMER "Arctic Monkeys"
REM COMPOSER ""
FLAGS DCP
INDEX 01 00:00:00
FILE "06 Four Out of Five.wav" WAVE
TRACK 06 AUDIO
TITLE "Four Out of Five"
PERFORMER "Arctic Monkeys"
REM COMPOSER ""
FLAGS DCP
INDEX 01 00:00:00
FILE "07 The World's First Ever Monster Truck Front Flip.wav" WAVE
TRACK 07 AUDIO
TITLE "The World's First Ever Monster Truck Front Flip"
PERFORMER "Arctic Monkeys"
REM COMPOSER ""
FLAGS DCP
INDEX 01 00:00:00
FILE "08 Science Fiction.wav" WAVE
TRACK 08 AUDIO
TITLE "Science Fiction"
PERFORMER "Arctic Monkeys"
REM COMPOSER ""
FLAGS DCP
INDEX 01 00:00:00
FILE "09 She Looks Like Fun.wav" WAVE
TRACK 09 AUDIO
TITLE "She Looks Like Fun"
PERFORMER "Arctic Monkeys"
REM COMPOSER ""
FLAGS DCP
INDEX 01 00:00:00
FILE "10 Batphone.wav" WAVE
TRACK 10 AUDIO
TITLE "Batphone"
PERFORMER "Arctic Monkeys"
REM COMPOSER ""
FLAGS DCP
INDEX 01 00:00:00
FILE "11 The Ultracheese.wav" WAVE
TRACK 11 AUDIO
TITLE "The Ultracheese"
PERFORMER "Arctic Monkeys"
REM COMPOSER ""
FLAGS DCP
INDEX 01 00:00:00

Отчёт auCDtect Task manager:


-----------------------

DON'T MODIFY THIS FILE

-----------------------

PERFORMER: auCDtect Task Manager, ver. 1.6.0 RC1 build 1.6.0.1
Copyright (c) 2008-2010 y-soft. All rights reserved
http://y-soft.org

ANALYZER: auCDtect: CD records authenticity detector, version 0.8.2
Copyright (c) 2004 Oleg Berngardt. All rights reserved.
Copyright (c) 2004 Alexander Djourik. All rights reserved.

FILE: 11 The Ultracheese.flac
Size: 24099194 Hash: 38859233CB3AD8769799F9C0DF9C3F55 Accuracy: -m0
Conclusion: CDDA 100%
Signature: 8FFF6E85783EFB23B152B3BEFB92698E6016EAA6
FILE: 10 Batphone.flac
Size: 28513781 Hash: 4F1B2ABEEF8EFADC5035FD1E5FBB4F70 Accuracy: -m0
Conclusion: CDDA 100%
Signature: BEC006C337674842A3651CB21EDF7344C1794B58
FILE: 09 She Looks Like Fun.flac
Size: 21408108 Hash: 1B4E0426FB7BB288488BE70A38FBD223 Accuracy: -m0
Conclusion: CDDA 100%
Signature: CEA1E300ECDE64DD8E79DF050ABFA3864776889A
FILE: 08 Science Fiction.flac
Size: 22080980 Hash: 918A310A828BEC0B4373BEA69128694B Accuracy: -m0
Conclusion: CDDA 100%
Signature: F17D7EDF5AD3699AFC0DAFF8AA114E5924F69889
FILE: 07 The World's First Ever Monster Truck Front Flip.flac
Size: 20821740 Hash: 8B67CEAA43810EEE162BE0CBD7C33EF3 Accuracy: -m0
Conclusion: CDDA 100%
Signature: F9DAA6B727A2C030D44E041D4F3F1E3BE13BE25D
FILE: 06 Four Out of Five.flac
Size: 37689235 Hash: DF2FAE1A2CC433FA9025D3E21DA144AA Accuracy: -m0
Conclusion: CDDA 99%
Signature: C14E3763FC40C9AA4368C819C44238A5D44654D6
FILE: 05 Golden Trunks.flac
Size: 19723184 Hash: 894B8DC878E9A34B38E6520B0A28BAFF Accuracy: -m0
Conclusion: CDDA 100%
Signature: FA0A369BB18F3469C59E85A8D25F03052515B6A4
FILE: 04 Tranquility Base Hotel & Casino.flac
Size: 24096083 Hash: DBC61399EFD9F0070033960886B0998C Accuracy: -m0
Conclusion: CDDA 100%
Signature: 9D52EE22CE539DE362494A2956794B04224075E5
FILE: 03 American Sports.flac
Size: 18304510 Hash: 7837D20C345FB5618C5B6178E9DD005A Accuracy: -m0
Conclusion: CDDA 99%
Signature: 2F21EB9B64A26D7F8D728944383CD55CC1CE9E08
FILE: 02 One Point Perspective.flac
Size: 22773629 Hash: 8034E446332A69A27DEB999005D48F36 Accuracy: -m0
Conclusion: CDDA 99%
Signature: 84407B1E59C15D7780AC5DA53434267D303EA82D
FILE: 01 Star Treatment.flac
Size: 38044994 Hash: 117D476B39C252433D6E3061392525C7 Accuracy: -m0
Conclusion: CDDA 100%
Signature: AC135E478D65185848041BF136B0F952B7D02F86
Детали торрента:
Название:Arctic Monkeys - Tranquility Base Hotel & Casino (2018) [FLAC|Lossless|tracks + .cue] <Alternative, Indie Rock>
Дата добавления:08 Май 2018 16:11:53
Размер:265 MB
Раздают:9
Качают:0
Форум:Alternative, Punk (Lossless)

All rights reserved © 2015-2019