TORRENTS45.XYZ

Скачать До свидания там, наверху / Au revoir la-haut (2017) BDRip [720p] ATV


До свидания там, наверху / Au revoir la-haut (2017) BDRip [720p] ATV
-

Год выпуска: 2017
Производство: Франция, Канада
Жанр: Драма, криминал
Продолжительность: 01:56:59

Перевод: Дублированный (iTunes)
Субтитры: Нет
Режиссер: Альбер Дюпонтель
Актеры: Науэль Перес Бискаярт, Альбер Дюпонтель, Лоран Лафитт, Нильс Ареструп, Эмили Декьенн, Мелани Тьерри, Элоиз Бальстер, Филипп Юшан, Андре Маркон, Мишель Вюйермоз

Мировая премьера: 27 июля 2017



Описание: Последние дни Первой мировой войны. Капитан Прадель, негодяй, для которого человеческая жизнь — ничто, посылает на верную гибель двух рядовых — блестящего молодого художника, сына миллионера Эдуара Перико, и бывшего банковского работника Альбера Мэйлара. Эдуар спасает жизнь Альбера, но сам оказывается тяжело ранен. Его лицо чудовищно изуродовано, и таким он не хочет возвращаться в замок отца. Объявив себя погибшим и скрыв навсегда лицо под маской, Эдуар начинает писать потрясающие картины о войне. Альбер становится импресарио «человека без лица».
Качество: BDRip 720p
Контейнер: M4V
Видео: H.264, 1280x536, 2.40:1, 3 500 Kbps, 23.976 fps

Аудио 1: Русский/Дублированный (iTunes), AAC / 2.0 / 160 Kbps / 48.0 KHz
Аудио 2: Французский/Оригинальная дорожка , AAC / 2.0 / 160 Kbps / 48.0 KHz
Аудио 3: Русский/Дублированный (iTunes), AC-3 / 5.1 / 384 Kbps / 48.0 KHz
Аудио 4: Французский/Оригинальная дорожка , AC-3 / 5.1 / 640 Kbps / 48.0 KHz

iTunes Meta Tags

Код: выделить все

Sort Name: Au revoir là-haut
XID: Apple:vendor_id:2017-959589
contentID: 1291861775
Copyright: © 2017 Stadenn Prod - Manchester Films - Gaumont - France 2 Cinéma
Screenwriters: Пьер Леметр, Альбер Дюпонтель
Producers: Катрин Бозорган
Director: Альбер Дюпонтель
Cast: Науэль Перес Бискаярт, Альбер Дюпонтель, Лоран Лафитт, Нильс Ареструп, Эмили Декьенн, Мелани Тьерри, Элоиз Бальстер, Филипп Юшан, Андре Маркон, Мишель Вюйермоз
Studio: Gaumont
Rating: 60
Long Description: Последние дни Первой мировой войны. Капитан Прадель, негодяй, для которого человеческая жизнь = ничто, посылает на верную гибель двух рядовых - блестящего молодого художника, сына миллионера Эдуара Перико, и бывшего банковского работника Альбера Мэйлара. Эдуар спасает жизнь Альбера, но сам оказывается тяжело ранен. Его лицо чудовищно изуродовано, и таким он не хочет возвращаться в замок отца. Объявив себя погибшим и скрыв навсегда лицо под маской, Эдуар начинает писать потрясающие картины о войне. Альбер становится импресарио "человека без лица".
Description: Последние дни Первой мировой войны. Капитан Прадель, негодяй, для которого человеческая жизнь = ничто, посылает на верную гибель двух рядовых - блестящего молодого художника, сына миллионера Эдуара Перико, и бывшего банковского работника Альбера Мэйлара. Эдуар спасает жизнь Альбера, но сам оказывается тяжело ранен...
Release Date: 2017-07-27T08:00:00Z
Genre: Drama
Artist: Albert Dupontel
Name: Au revoir là-haut

MediaInfo

Код: выделить все

General
Complete name                            : /Users/imac/HandBrake/Au.Revoir.La-haut.720p.HD.m4v
Format                                   : MPEG-4
Codec ID                                 : M4V  (M4V /M4A /mp42/isom)
File size                                : 3.96 GiB
Duration                                 : 1h 56mn
Overall bit rate mode                    : Variable
Overall bit rate                         : 4 841 Kbps
Movie name                               : Au revoir là-haut
Performer                                : Albert Dupontel
Director                                 : Альбер Дюпонтель
Actor                                    : Науэль Перес Бискаярт / Альбер Дюпонтель / Лоран Лафитт / Нильс Ареструп / Эмили Декьенн / Мелани Тьерри / Элоиз Бальстер / Филипп Юшан / Андре Маркон / Мишель Вюйермоз
Screenplay by                            : Пьер Леметр / Альбер Дюпонтель
Producer                                 : Катрин Бозорган
Production studio                        : Gaumont
Genre                                    : Drama
ContentType                              : Short Film
Description                              : Последние дни Первой мировой войны. Капитан Прадель, негодяй, для которого человеческая жизнь = ничто, посылает на верную гибель двух рядовых - блестящего молодого художника, сына миллионера Эдуара Перико, и бывшего банковского работника Альбера Мэйлара. Эдуар спасает жизнь Альбера, но сам оказывается тяжело ранен...
Recorded date                            : UTC 2017-07-27 08:00:00
Encoded date                             : UTC 2018-05-02 13:09:31
Tagged date                              : UTC 2018-05-02 13:15:59
Copyright                                : © 2017 Stadenn Prod - Manchester Films - Gaumont - France 2 Cinéma
Cover                                    : Yes
Rating                                   : None
Title/Sort                               : Au revoir là-haut
LongDescription                          : Последние дни Первой мировой войны. Капитан Прадель, негодяй, для которого человеческая жизнь = ничто, посылает на верную гибель двух рядовых - блестящего молодого художника, сына миллионера Эдуара Перико, и бывшего банковского работника Альбера Мэйлара. Эдуар спасает жизнь Альбера, но сам оказывается тяжело ранен. Его лицо чудовищно изуродовано, и таким он не хочет возвращаться в замок отца. Объявив себя погибшим и скрыв навсегда лицо под маской, Эдуар начинает писать потрясающие картины о войне. Альбер становится импресарио "человека без лица".
HDVideo                                  : Yes
AppleStoreCatalogID                      : 1291861775
Vendor                                   : Apple:vendor_id:2017-959589
ContentRating                            : fr-movie|Tout public|000|

Video #1
ID                                       : 1
Format                                   : AVC
Format/Info                              : Advanced Video Codec
Format profile                           : High@L3.1
Format settings                          : 3 Ref Frames
Format settings, CABAC                   : No
Format settings, ReFrames                : 3 frames
Codec ID                                 : avc1
Codec ID/Info                            : Advanced Video Coding
Duration                                 : 1h 56mn
Source duration                          : 1h 56mn
Bit rate                                 : 3 500 Kbps
Width                                    : 1 280 pixels
Height                                   : 536 pixels
Display aspect ratio                     : 2.40:1
Frame rate mode                          : Variable
Frame rate                               : 23.976 fps
Minimum frame rate                       : 23.810 fps
Maximum frame rate                       : 23.981 fps
Color space                              : YUV
Chroma subsampling                       : 4:2:0
Bit depth                                : 8 bits
Scan type                                : Progressive
Bits/(Pixel*Frame)                       : 0.213
Stream size                              : 2.86 GiB (72%)
Source stream size                       : 2.86 GiB (72%)
Title                                    : Main Program
Writing library                          : x264 core 155 r2893 b00bcaf
Encoding settings                        : cabac=0 / ref=3 / deblock=1:-3:-3 / analyse=0x3:0x113 / me=umh / subme=9 / psy=1 / psy_rd=1.00:0.15 / mixed_ref=1 / me_range=32 / chroma_me=1 / trellis=0 / 8x8dct=1 / cqm=0 / deadzone=21,11 / fast_pskip=0 / chroma_qp_offset=-2 / threads=17 / lookahead_threads=1 / sliced_threads=0 / nr=0 / decimate=0 / interlaced=0 / bluray_compat=0 / constrained_intra=0 / bframes=3 / b_pyramid=0 / b_adapt=2 / b_bias=0 / direct=1 / weightb=0 / open_gop=0 / weightp=0 / keyint=240 / keyint_min=24 / scenecut=40 / intra_refresh=0 / rc_lookahead=40 / rc=2pass / mbtree=1 / bitrate=3500 / ratetol=1.0 / qcomp=0.65 / qpmin=0 / qpmax=69 / qpstep=4 / cplxblur=20.0 / qblur=0.5 / vbv_maxrate=9500 / vbv_bufsize=9500 / nal_hrd=none / filler=0 / ip_ratio=1.40 / aq=1:1.10
Language                                 : French
Encoded date                             : UTC 2018-05-02 13:09:31
Tagged date                              : UTC 2018-05-02 13:09:38
Color range                              : Limited
Color primaries                          : BT.709
Transfer characteristics                 : BT.709
Matrix coefficients                      : BT.709
Menus                                    : 6,7

Video #2
ID                                       : 7
Format                                   : JPEG
Codec ID                                 : jpeg
Duration                                 : 1h 56mn
Bit rate mode                            : Variable
Bit rate                                 : 296 bps
Width                                    : 640 pixels
Height                                   : 268 pixels
Display aspect ratio                     : 2.40:1
Frame rate mode                          : Constant
Frame rate                               : 0.001 fps
Color space                              : YUV
Chroma subsampling                       : 4:2:0
Bit depth                                : 8 bits
Compression mode                         : Lossy
Bits/(Pixel*Frame)                       : 1.726
Stream size                              : 434 KiB (0%)
Title                                    : Chapter Images
Language                                 : French
Default                                  : No
Encoded date                             : UTC 2018-05-02 13:10:37
Tagged date                              : UTC 2018-05-02 13:10:37
Menu For                                 : 1
ColorSpace_ICC                           : RGB

Audio #1
ID                                       : 2
Format                                   : AAC
Format/Info                              : Advanced Audio Codec
Format profile                           : LC
Codec ID                                 : mp4a-40-2
Duration                                 : 1h 56mn
Source duration                          : 1h 56mn
Bit rate mode                            : Variable
Bit rate                                 : 155 Kbps
Maximum bit rate                         : 242 Kbps
Channel(s)                               : 2 channels
Channel positions                        : Front: L R
Sampling rate                            : 48.0 KHz
Frame rate                               : 46.875 fps (1024 SPF)
Compression mode                         : Lossy
Stream size                              : 130 MiB (3%)
Source stream size                       : 130 MiB (3%)
Title                                    : Russian Stereo
Language                                 : Russian
Default                                  : Yes
Alternate group                          : 1
Encoded date                             : UTC 2018-05-02 13:09:31
Tagged date                              : UTC 2018-05-02 13:10:34
Fallback From                            : 4

Audio #2
ID                                       : 3
Format                                   : AAC
Format/Info                              : Advanced Audio Codec
Format profile                           : LC
Codec ID                                 : mp4a-40-2
Duration                                 : 1h 56mn
Source duration                          : 1h 56mn
Bit rate mode                            : Variable
Bit rate                                 : 157 Kbps
Maximum bit rate                         : 248 Kbps
Channel(s)                               : 2 channels
Channel positions                        : Front: L R
Sampling rate                            : 48.0 KHz
Frame rate                               : 46.875 fps (1024 SPF)
Compression mode                         : Lossy
Stream size                              : 131 MiB (3%)
Source stream size                       : 131 MiB (3%)
Title                                    : French Stereo
Language                                 : French
Default                                  : No
Alternate group                          : 1
Encoded date                             : UTC 2018-05-02 13:09:31
Tagged date                              : UTC 2018-05-02 13:10:34
Fallback From                            : 5

Audio #3
ID                                       : 4
Format                                   : AC-3
Format/Info                              : Audio Coding 3
Codec ID                                 : ac-3
Duration                                 : 1h 56mn
Bit rate mode                            : Constant
Bit rate                                 : 384 Kbps
Channel(s)                               : 6 channels
Channel positions                        : Front: L C R, Side: L R, LFE
Sampling rate                            : 48.0 KHz
Frame rate                               : 31.250 fps (1536 SPF)
Bit depth                                : 16 bits
Compression mode                         : Lossy
Stream size                              : 321 MiB (8%)
Title                                    : Russian DD 5.1
Language                                 : Russian
Service kind                             : Complete Main
Default                                  : Inherited From: 2
Alternate group                          : 1
Encoded date                             : UTC 2018-05-02 13:09:31
Tagged date                              : UTC 2018-05-02 13:10:34
Fallback To                              : 2

Audio #4
ID                                       : 5
Format                                   : AC-3
Format/Info                              : Audio Coding 3
Codec ID                                 : ac-3
Duration                                 : 1h 56mn
Bit rate mode                            : Constant
Bit rate                                 : 640 Kbps
Channel(s)                               : 6 channels
Channel positions                        : Front: L C R, Side: L R, LFE
Sampling rate                            : 48.0 KHz
Frame rate                               : 31.250 fps (1536 SPF)
Bit depth                                : 16 bits
Compression mode                         : Lossy
Stream size                              : 536 MiB (13%)
Title                                    : French DD 5.1
Language                                 : French
Service kind                             : Complete Main
Default                                  : No
Alternate group                          : 1
Encoded date                             : UTC 2018-05-02 13:09:31
Tagged date                              : UTC 2018-05-02 13:10:34
Fallback To                              : 3

Menu #1
00:00:00.000                             : Chapitre 01
00:09:51.717                             : Chapitre 02
00:19:04.980                             : Chapitre 03
00:28:15.239                             : Chapitre 04
00:36:53.133                             : Chapitre 05
00:47:04.537                             : Chapitre 06
00:57:27.036                             : Chapitre 07
01:06:40.799                             : Chapitre 08
01:14:52.291                             : Chapitre 09
01:23:42.323                             : Chapitre 10
01:31:52.772                             : Chapitre 11
01:42:48.179                             : Chapitre 12

Menu #2
ID                                       : 6
Codec ID                                 : text
Duration                                 : 1h 56mn
Language                                 : French
Encoded date                             : UTC 2018-05-02 13:10:34
Tagged date                              : UTC 2018-05-02 13:10:34
Bit rate mode                            : CBR
Menu For                                 : 1
00:00:00.000                             : Chapitre 01
00:09:51.717                             : Chapitre 02
00:19:04.980                             : Chapitre 03
00:28:15.239                             : Chapitre 04
00:36:53.133                             : Chapitre 05
00:47:04.537                             : Chapitre 06
00:57:27.036                             : Chapitre 07
01:06:40.799                             : Chapitre 08
01:14:52.291                             : Chapitre 09
01:23:42.323                             : Chapitre 10
01:31:52.772                             : Chapitre 11
01:42:48.179                             : Chapitre 12

x264 лог

Код: выделить все

x264 [info]: frame I:1796  Avg QP:17.93  size: 91482
x264 [info]: frame P:52310 Avg QP:20.95  size: 32652
x264 [info]: frame B:114188 Avg QP:22.09  size: 10458
x264 [info]: consecutive B-frames:  2.5%  9.8% 33.9% 53.8%
x264 [info]: mb I  I16..4:  6.0% 63.4% 30.6%
x264 [info]: mb P  I16..4:  0.9%  4.2%  1.6%  P16..4: 46.8% 28.0% 12.0%  0.0%  0.0%    skip: 6.5%
x264 [info]: mb B  I16..4:  0.1%  0.5%  0.2%  B16..8: 49.1% 10.8%  1.8%  direct: 5.0%  skip:32.6%  L0:44.1% L1:51.0% BI: 4.8%
x264 [info]: 8x8 transform intra:63.8% inter:48.5%
x264 [info]: coded y,uvDC,uvAC intra: 86.4% 78.4% 58.4% inter: 31.5% 27.3% 14.3%
x264 [info]: i16 v,h,dc,p: 60% 14%  8% 18%
x264 [info]: i8 v,h,dc,ddl,ddr,vr,hd,vl,hu: 11%  6%  5% 12% 17% 15% 14% 11% 10%
x264 [info]: i4 v,h,dc,ddl,ddr,vr,hd,vl,hu: 10%  6%  3% 13% 18% 16% 14% 11%  9%
x264 [info]: i8c dc,h,v,p: 58% 14% 17% 10%
x264 [info]: ref P L0: 65.2% 19.9% 15.0%
x264 [info]: ref B L0: 75.0% 25.0%
x264 [info]: kb/s:3494.90

Скриншоты:




Все одноименные релизы в Клубе


Релиз подготовлен для просмотра на Apple TV, iPad, iPhone, iPod Touch.
Для просмотра данного релиза на компьютере с ОС Windows рекомендуется использовать VLC media player

Смотреть Online

http://moonwalk.cc/video/311c86ff945c2ee4/iframe
Детали торрента:
Название:До свидания там, наверху / Au revoir la-haut (2017) BDRip [720p] ATV
Дата добавления:02 Май 2018 16:35:15
Размер:3,96 GB
Раздают:5
Качают:0
Форум:Зарубежное видео HD для устройств Apple

All rights reserved © 2015-2018