TORRENTS45.XYZ

Скачать Собачья жизнь / A Dog's Purpose (2017) BDRip [H.264]


Собачья жизнь / A Dog's Purpose (2017) BDRip [H.264]
Производство: США, Индия
Жанр: фэнтези, драма, комедия, семейный

Режиссер: Лассе Халльстрём
Актеры: Джош Гад, Деннис Куэйд, Пегги Липтон, Кей Джей Апа, Брайс Гейзар, Джульет Райлэнс, Люк Кирби, Габриель Роз, Майкл Бофшевер, Бритт Робертсон, Логан Миллер, Кирби Хауэлл-Баптисте, Пуч Холл, Джон Ортис, Николь ЛаПлаца, Примо Аллон...

Описание:
Собаки бывают разных пород, мастей и размеров. Они — наши самые верные и преданные друзья, а мы учим их хорошим манерам. Собаки всегда думают о нас, правда, иногда и о беконе. Все они каждый день провожают и встречают нас у порога в уверенности, что пока им есть, кого облизывать и любить, в их жизни есть смысл.


Возраст: 6+ (зрителям, достигшим 6 лет)
Рейтинг MPAA: PG (рекомендуется присутствие родителей)
Дата выхода DVD/Blu-ray релиза: 25 мая 2017

Релиз от: optik.1557

Продолжительность: 01:40:02
Качество видео: BDRip
Перевод: Дублированный (iTunes), Одноголосый закадровый, авторский (Л. Володарский)
Субтитры: Русские (Форсированные, Полные), Английские (Full, SDH, SDH-Colored)

Видео: AVC/H.264, 1152x482, 3325 kbps, 23.976 fps.
Аудио #01: AC3, 6 ch, 48.0 KHz, 384 Kbps | Русский. Дубляж
Аудио #02: AC3, 6 ch, 48.0 KHz, 448 Kbps | Русский. AVO. Володарский Л.
Аудио #03: AC3, 6 ch, 48.0 KHz, 448 Kbps | English.

Mediainfo/x264:

x264

x264 [info]: profile High, level 4.1
x264 [info]: frame I:1358 Avg QP:14.88 size:100561
x264 [info]: frame P:30766 Avg QP:16.40 size: 36296
x264 [info]: frame B:111784 Avg QP:18.55 size: 11107
x264 [info]: consecutive B-frames: 2.3% 2.5% 7.6% 22.5% 16.7% 33.5% 5.2% 1.9% 1.5% 1.0% 2.0% 1.0% 0.7% 1.0%
x264 [info]: mb I I16..4: 5.3% 76.2% 18.5%
x264 [info]: mb P I16..4: 1.2% 15.5% 2.5% P16..4: 30.9% 26.6% 16.2% 0.0% 0.0% skip: 7.1%
x264 [info]: mb B I16..4: 0.2% 1.6% 0.4% B16..8: 33.4% 14.0% 4.5% direct: 6.3% skip:39.5% L0:44.3% L1:39.7% BI:15.9%
x264 [info]: 8x8 transform intra:78.3% inter:61.2%
x264 [info]: coded y,uvDC,uvAC intra: 86.3% 93.4% 84.3% inter: 26.3% 25.9% 12.9%
x264 [info]: i16 v,h,dc,p: 49% 12% 7% 32%
x264 [info]: i8 v,h,dc,ddl,ddr,vr,hd,vl,hu: 16% 10% 8% 8% 11% 11% 12% 11% 13%
x264 [info]: i4 v,h,dc,ddl,ddr,vr,hd,vl,hu: 30% 7% 4% 7% 11% 11% 11% 9% 10%
x264 [info]: i8c dc,h,v,p: 47% 18% 18% 16%
x264 [info]: Weighted P-Frames: Y:5.6% UV:2.6%
x264 [info]: ref P L0: 48.1% 11.8% 15.9% 6.0% 5.1% 3.4% 3.1% 1.6% 1.6% 1.2% 1.2% 1.0% 0.1% 0.0%
x264 [info]: ref B L0: 70.1% 11.9% 6.1% 3.3% 2.4% 2.0% 1.6% 1.0% 0.8% 0.5% 0.2%
x264 [info]: ref B L1: 93.9% 6.1%
x264 [info]: kb/s:3325.28
General
Unique ID : 198256851361695348204271620115851169193 (0x9526E173B409B78EB0FCEE486B58CDA9)
Complete name : A Dog's Purpose (2017)-AVC.mkv
Format : Matroska
Format version : Version 4 / Version 2
File size : 3.22 GiB
Duration : 1 h 40 min
Overall bit rate : 4 608 kb/s
Movie name : Собачья жизнь / A Dog's Purpose (2017)
Encoded date : UTC 2018-04-17 10:15:33
Writing application : mkvmerge v8.1.0 ('Psychedelic Postcard') 64bit
Writing library : libebml v1.3.1 + libmatroska v1.4.2
Cover : Yes
Attachments : cover.jpg

Video
ID : 1
Format : AVC
Format/Info : Advanced Video Codec
Format profile : High@L4.1
Format settings : CABAC / 12 Ref Frames
Format settings, CABAC : Yes
Format settings, ReFrames : 12 frames
Codec ID : V_MPEG4/ISO/AVC
Duration : 1 h 40 min
Bit rate : 3 325 kb/s
Width : 1 152 pixels
Height : 482 pixels
Display aspect ratio : 2.40:1
Frame rate mode : Constant
Frame rate : 23.976 (24000/1001) FPS
Color space : YUV
Chroma subsampling : 4:2:0
Bit depth : 8 bits
Scan type : Progressive
Bits/(Pixel*Frame) : 0.250
Stream size : 2.32 GiB (72%)
Title : A Dog's Purpose (2017) By optik.1557
Writing library : x264 core 155 r2901 7d0ff22
Encoding settings : cabac=1 / ref=12 / deblock=1:-3:-2 / analyse=0x3:0x113 / me=umh / subme=10 / psy=1 / psy_rd=1.05:0.01 / mixed_ref=1 / me_range=32 / chroma_me=1 / trellis=2 / 8x8dct=1 / cqm=0 / deadzone=21,11 / fast_pskip=0 / chroma_qp_offset=-3 / threads=6 / lookahead_threads=1 / sliced_threads=0 / nr=0 / decimate=1 / interlaced=0 / bluray_compat=0 / constrained_intra=0 / bframes=13 / b_pyramid=2 / b_adapt=2 / b_bias=0 / direct=1 / weightb=1 / open_gop=0 / weightp=2 / keyint=250 / keyint_min=23 / scenecut=40 / intra_refresh=0 / rc_lookahead=60 / rc=crf / mbtree=0 / crf=17.3 / qcomp=0.70 / qpmin=0 / qpmax=69 / qpstep=4 / vbv_maxrate=50000 / vbv_bufsize=62500 / crf_max=0.0 / nal_hrd=none / filler=0 / ip_ratio=1.40 / pb_ratio=1.30 / aq=3:0.85
Language : English
Default : Yes
Forced : No

Audio #1
ID : 2
Format : AC-3
Format/Info : Audio Coding 3
Codec ID : A_AC3
Duration : 1 h 40 min
Bit rate mode : Constant
Bit rate : 384 kb/s
Channel(s) : 6 channels
Channel positions : Front: L C R, Side: L R, LFE
Sampling rate : 48.0 kHz
Frame rate : 31.250 FPS (1536 SPF)
Bit depth : 16 bits
Compression mode : Lossy
Stream size : 275 MiB (8%)
Title : Дубляж (iTunes)
Language : Russian
Service kind : Complete Main
Default : Yes
Forced : No

Audio #2
ID : 3
Format : AC-3
Format/Info : Audio Coding 3
Codec ID : A_AC3
Duration : 1 h 40 min
Bit rate mode : Constant
Bit rate : 448 kb/s
Channel(s) : 6 channels
Channel positions : Front: L C R, Side: L R, LFE
Sampling rate : 48.0 kHz
Frame rate : 31.250 FPS (1536 SPF)
Bit depth : 16 bits
Compression mode : Lossy
Stream size : 321 MiB (10%)
Title : (AVO) Леонид Володарский
Language : Russian
Service kind : Complete Main
Default : No
Forced : No

Audio #3
ID : 4
Format : AC-3
Format/Info : Audio Coding 3
Codec ID : A_AC3
Duration : 1 h 40 min
Bit rate mode : Constant
Bit rate : 448 kb/s
Channel(s) : 6 channels
Channel positions : Front: L C R, Side: L R, LFE
Sampling rate : 48.0 kHz
Frame rate : 31.250 FPS (1536 SPF)
Bit depth : 16 bits
Compression mode : Lossy
Stream size : 321 MiB (10%)
Title : Original
Language : English
Service kind : Complete Main
Default : No
Forced : No

Text #1
ID : 5
Format : UTF-8
Codec ID : S_TEXT/UTF8
Codec ID/Info : UTF-8 Plain Text
Duration : 55 min 32 s
Bit rate : 1 b/s
Count of elements : 12
Stream size : 552 Bytes (0%)
Title : Форсированные
Language : Russian
Default : Yes
Forced : No

Text #2
ID : 6
Format : UTF-8
Codec ID : S_TEXT/UTF8
Codec ID/Info : UTF-8 Plain Text
Duration : 1 h 32 min
Bit rate : 88 b/s
Count of elements : 1491
Stream size : 59.9 KiB (0%)
Title : Полные
Language : Russian
Default : No
Forced : No

Text #3
ID : 7
Format : UTF-8
Codec ID : S_TEXT/UTF8
Codec ID/Info : UTF-8 Plain Text
Duration : 1 h 35 min
Bit rate : 66 b/s
Count of elements : 1862
Stream size : 46.5 KiB (0%)
Title : Full
Language : English
Default : No
Forced : No

Text #4
ID : 8
Format : UTF-8
Codec ID : S_TEXT/UTF8
Codec ID/Info : UTF-8 Plain Text
Duration : 1 h 32 min
Bit rate : 64 b/s
Count of elements : 1710
Stream size : 43.9 KiB (0%)
Title : SDH
Language : English
Default : No
Forced : No

Text #5
ID : 9
Format : UTF-8
Codec ID : S_TEXT/UTF8
Codec ID/Info : UTF-8 Plain Text
Duration : 1 h 38 min
Bit rate : 112 b/s
Count of elements : 2129
Stream size : 81.3 KiB (0%)
Title : SDH-Colored
Language : English
Default : No
Forced : No

Menu
00:00:00.000 : :Chapter 01
00:04:39.779 : :Chapter 02
00:08:54.408 : :Chapter 03
00:14:10.307 : :Chapter 04
00:17:46.482 : :Chapter 05
00:22:38.607 : :Chapter 06
00:28:33.002 : :Chapter 07
00:33:45.481 : :Chapter 08
00:37:26.702 : :Chapter 09
00:42:16.116 : :Chapter 10
00:48:31.533 : :Chapter 11
00:51:24.247 : :Chapter 12
00:56:04.736 : :Chapter 13
01:01:12.669 : :Chapter 14
01:05:40.311 : :Chapter 15
01:12:03.068 : :Chapter 16
01:16:24.496 : :Chapter 17
01:21:07.988 : :Chapter 18
01:27:57.939 : :Chapter 19
01:33:40.615 : :Chapter 20
Скриншоты:


Все одноименные релизы в Клубе
Детали торрента:
Название:Собачья жизнь / A Dog's Purpose (2017) BDRip [H.264]
Дата добавления:26 Апр 2018 23:08:57
Размер:3,22 GB
Раздают:13
Качают:0
Форум:Зарубежные Фильмы (HD*Rip/LQ, DVDRip, SATRip, VHSRip)

All rights reserved © 2015-2018