TORRENTS45.XYZ

Скачать Братья Махно и Гуляй Поле - Любо, братцы, жить! (1993) [FLAC|Lossless|image + .cue]<Шансон, Фолк>


Братья Махно и Гуляй Поле - Любо, братцы, жить! (1993)
Год: 1993
Жанр: Шансон, Фолк
Издание: Jeff Records SS 93009
Источник (релизер): eloychik ®
Продолжительность: 00:48:51

Кодек: FLAC
Битрейт: Lossless
Тип рипа: image + .cue

Треклист:
01. Рубаха красная 3:46
02. Отпусти меня, Батя 4:00
03. Бродяга 4:30
04. Матрёшка 3:46
05. Спой, атаман 4:23
06. Свадьба 3:52
07. Как жаль 5:26
08. Одесса 3:46
09. Картинка - Зинка 3:28
10. От винта 2:57
11. Казачья сотня 3:49
12. Любо, братцы, любо 4:35

Отчёт ЕАС:

Код: выделить все

Exact Audio Copy V1.3 from 2. September 2016

Отчёт EAC об извлечении, выполненном 17. апреля 2018, 19:42

Братья Махно и Гуляй Поле / Любо, братцы, жить!

Дисковод: ASUS    DRW-24D5MT   Adapter: 1  ID: 0

Режим чтения                 : Достоверность
Использование точного потока : Да
Отключение кэша аудио        : Да
Использование указателей C2  : Нет

Коррекция смещения при чтении                     : 6
Способность читать области Lead-in и Lead-out     : Нет
Заполнение пропущенных сэмплов тишиной            : Да
Удаление блоков с тишиной в начале и конце        : Нет
При вычислениях CRC использовались нулевые сэмплы : Да
Интерфейс                                         : Встроенный Win32-интерфейс для Win NT/2000

Выходной формат          : Пользовательский кодировщик
Выбранный битрейт        : 128 kBit/s
Качество                 : Высокий
Добавление ID3-тега      : Нет
Утилита сжатия           : C:\Program Files (x86)\Exact Audio Copy\Flac\flac.exe
Дополнительные параметры :  -V -8 -T "Date=%year%" -T "Genre=%genre%" %source%

TOC извлечённого CD

     Трек |   Старт  | Длительность | Начальный сектор | Конечный сектор
    ---------------------------------------------------------------------
       1  |  0:00.30 |    3:47.10   |          30      |      17064
       2  |  3:47.40 |    4:02.35   |       17065      |      35249
       3  |  7:50.00 |    4:30.23   |       35250      |      55522
       4  | 12:20.23 |    3:50.42   |       55523      |      72814
       5  | 16:10.65 |    4:26.73   |       72815      |      92837
       6  | 20:37.63 |    3:56.05   |       92838      |     110542
       7  | 24:33.68 |    5:26.07   |      110543      |     134999
       8  | 30:00.00 |    3:51.23   |      135000      |     152347
       9  | 33:51.23 |    3:31.20   |      152348      |     168192
      10  | 37:22.43 |    3:01.62   |      168193      |     181829
      11  | 40:24.30 |    3:52.33   |      181830      |     199262
      12  | 44:16.63 |    4:34.42   |      199263      |     219854

Характеристики диапазона извлечения и сообщения об ошибках

Выбранный диапазон

     Имя файла E:\Раздачи\torrents45.xyzoychik ®\Братья Махно и Гуляй Поле -   Любо, братцы, жить! [Torrents45.xyz]\Братья Махно и Гуляй Поле - Любо, братцы, жить!.wav

     Пиковый уровень 80.5 %
     Скорость извлечения 1.7 X
     Качество диапазона 100.0 %
     CRC теста F5814BA9
     CRC копии F5814BA9
     Копирование... OK

Ошибок не произошло

AccurateRip: сводка

Трек  1  : извлечено точно (доверие 1)  [20DFFCB1]  (AR v1)
Трек  2  : извлечено точно (доверие 1)  [89C813CC]  (AR v1)
Трек  3  : извлечено точно (доверие 1)  [F40C4CBB]  (AR v1)
Трек  4  : извлечено точно (доверие 1)  [4ECBF327]  (AR v1)
Трек  5  : извлечено точно (доверие 1)  [A951B356]  (AR v1)
Трек  6  : извлечено точно (доверие 1)  [EBC263D8]  (AR v1)
Трек  7  : извлечено точно (доверие 1)  [D4DC729F]  (AR v1)
Трек  8  : извлечено точно (доверие 1)  [1BC8BF2D]  (AR v1)
Трек  9  : извлечено точно (доверие 1)  [B88CDFE0]  (AR v1)
Трек 10  : извлечено точно (доверие 1)  [78D6A0F1]  (AR v1)
Трек 11  : извлечено точно (доверие 1)  [A3FC94AE]  (AR v1)
Трек 12  : извлечено точно (доверие 1)  [C3609922]  (AR v1)

Все треки извлечены точно

Конец отчёта

==== Контрольная сумма отчёта B2AB1776B76ACD9D5B429FBEF28B79A5617A6E9958F18228BF380D40F1D2688D ====

Cue Sheet (.cue):

Код: выделить все

REM GENRE Chanson
REM DATE 1993
REM DISCID 9D0B730C
REM COMMENT "ExactAudioCopy v1.3"
PERFORMER "Братья Махно и Гуляй Поле"
TITLE "Любо, братцы, жить!"
REM COMPOSER ""
FILE "Братья Махно и Гуляй Поле - Любо, братцы, жить!.flac" WAVE
  TRACK 01 AUDIO
    TITLE "Рубаха красная"
    PERFORMER "Братья Махно и Гуляй Поле"
    REM COMPOSER ""
    INDEX 00 00:00:00
    INDEX 01 00:00:30
  TRACK 02 AUDIO
    TITLE "Отпусти меня,Батя"
    PERFORMER "Братья Махно и Гуляй Поле"
    REM COMPOSER ""
    INDEX 00 03:45:38
    INDEX 01 03:47:40
  TRACK 03 AUDIO
    TITLE "Бродяга"
    PERFORMER "Братья Махно и Гуляй Поле"
    REM COMPOSER ""
    INDEX 00 07:47:70
    INDEX 01 07:50:00
  TRACK 04 AUDIO
    TITLE "Матрешка"
    PERFORMER "Братья Махно и Гуляй Поле"
    REM COMPOSER ""
    INDEX 00 12:18:25
    INDEX 01 12:20:23
  TRACK 05 AUDIO
    TITLE "Спой, атаман"
    PERFORMER "Братья Махно и Гуляй Поле"
    REM COMPOSER ""
    INDEX 00 16:08:58
    INDEX 01 16:10:65
  TRACK 06 AUDIO
    TITLE "Свадьба"
    PERFORMER "Братья Махно и Гуляй Поле"
    REM COMPOSER ""
    INDEX 00 20:35:65
    INDEX 01 20:37:63
  TRACK 07 AUDIO
    TITLE "Как жаль"
    PERFORMER "Братья Махно и Гуляй Поле"
    REM COMPOSER ""
    INDEX 00 24:31:65
    INDEX 01 24:33:68
  TRACK 08 AUDIO
    TITLE "Одесса"
    PERFORMER "Братья Махно и Гуляй Поле"
    REM COMPOSER ""
    INDEX 00 29:59:23
    INDEX 01 30:00:00
  TRACK 09 AUDIO
    TITLE "Картинка - Зинка"
    PERFORMER "Братья Махно и Гуляй Поле"
    REM COMPOSER ""
    INDEX 00 33:49:23
    INDEX 01 33:51:23
  TRACK 10 AUDIO
    TITLE "От винта"
    PERFORMER "Братья Махно и Гуляй Поле"
    REM COMPOSER ""
    INDEX 00 37:20:55
    INDEX 01 37:22:43
  TRACK 11 AUDIO
    TITLE "Казачья сотня"
    PERFORMER "Братья Махно и Гуляй Поле"
    REM COMPOSER ""
    INDEX 00 40:22:18
    INDEX 01 40:24:30
  TRACK 12 AUDIO
    TITLE "Любо, братцы, любо"
    PERFORMER "Братья Махно и Гуляй Поле"
    REM COMPOSER ""
    INDEX 00 44:14:65
    INDEX 01 44:16:63

Отчёт auCDtect Task manager:

Код: выделить все

-----------------------

DON'T MODIFY THIS FILE

-----------------------

PERFORMER: auCDtect Task Manager, ver. 1.6.0 RC1 build 1.6.0.1
Copyright (c) 2008-2010 y-soft. All rights reserved
http://y-soft.org

ANALYZER: auCDtect: CD records authenticity detector, version 0.8.2
Copyright (c) 2004 Oleg Berngardt. All rights reserved.
Copyright (c) 2004 Alexander Djourik. All rights reserved.

FILE: Братья Махно и Гуляй Поле - Любо, братцы, жить!.flac
  Size: 372886674 Hash: 903E247EF0C41965340384CD88225B6E Accuracy: -m0
  Conclusion: CDDA 100%
  Signature: 3D30DCD799B889561BC213F76F109137A3CDA6A1
YouTube




Поглощение/вытеснение
Только с согласия релизера

gvm55

Детали торрента:
Название:Братья Махно и Гуляй Поле - Любо, братцы, жить! (1993) [FLAC|Lossless|image + .cue]<Шансон, Фолк>
Дата добавления:24 Апр 2018 12:22:41
Размер:366 MB
Раздают:1
Качают:0
Форум:Русский Шансон (Lossless)

All rights reserved © 2015-2018