TORRENTS45.XYZ

Скачать NASCAR. Monster Energy Cup Series 2018. Folds of Honor QuikTrip 500 (25.02.2018) HDTVRip [H.264/720p-LQ] [hand made 60fps] [EN]


NASCAR. Monster Energy Cup Series 2018. Folds of Honor QuikTrip 500 (25.02.2018) HDTVRip [H.264/720p-LQ] [EN]
Телекомпания: США, Fox Sports
Жанр: Спорт

Описание: 25 февраля 2018 года, 19:00 МСК
Сезон 2018 года серии Кубка НАСКАР (NASCAR Cup Series). 2-й Этап.
Folds of Honor QuikTrip 500. Хэмптон (штат Джорджия, США)
Дистанция: 500,5 миль (805,476 км). 325 кругов, круг - 1,54 мили (2,48 км)
Этап 1: 85 кругов, Этап 2: 85 кругов, Этап 3: 155 кругов
Трасса: Атланта Мотор Спидвей (Хэмптон, штат Джорджия, США)

Релиз от: DHD

Продолжительность: 03:07:59
Качество видео: HDTVRip
Язык озвучки: Английский
Субтитры: отсутствуют

Видео: AVC/H.264, 1280x720 (16:9), ~3500 Kbps, 60 fps
Аудио: AC3, 2 ch, 48 kHz, 192 Kbps

Mediainfo:


Общее
Уникальный идентификатор : 243793459130973211813180488878934319047 (0xB768E98DB65BF07996A33F946E3DDFC7)
Полное имя : F:\SPORT\Авто,мото\(25.02.2018)_NASCAR.Monster Energy Cup Series 2018. Folds of Honor QuikTrip 500.mkv
Формат : Matroska
Версия формата : Version 4 / Version 2
Размер файла : 4,86 Гбайт
Продолжительность : 3 ч. 7 м.
Общий поток : 3699 Кбит/сек
Дата кодирования : UTC 2018-04-08 04:22:39
Программа кодирования : mkvmerge v22.0.0 ('At The End Of The World') 32-bit
Библиотека кодирования : libebml v1.3.5 + libmatroska v1.4.8

Видео
Идентификатор : 1
Формат : AVC
Формат/Информация : Advanced Video Codec
Профиль формата : High@L3.2
Настройки формата : CABAC / 4 Ref Frames
Параметр CABAC формата : Да
Параметр RefFrames формата : 4 кадра
Идентификатор кодека : V_MPEG4/ISO/AVC
Продолжительность : 3 ч. 7 м.
Битрейт : 3500 Кбит/сек
Ширина : 1280 пикселей
Высота : 720 пикселей
Соотношение сторон : 16:9
Режим частоты кадров : Переменный
Частота кадров : 58,190 кадров/сек
Цветовое пространство : YUV
Субдискретизация насыщенности : 4:2:0
Битовая глубина : 8 бит
Тип развёртки : Прогрессивная
Бит/(Пиксели*Кадры) : 0.065
Размер потока : 4,60 Гбайт (95%)
Библиотека кодирования : x264 core 148
Настройки программы : cabac=1 / ref=3 / deblock=1:0:0 / analyse=0x3:0x113 / me=hex / subme=7 / psy=1 / psy_rd=1.00:0.00 / mixed_ref=1 / me_range=16 / chroma_me=1 / trellis=1 / 8x8dct=1 / cqm=0 / deadzone=21,11 / fast_pskip=1 / chroma_qp_offset=-2 / threads=6 / lookahead_threads=1 / sliced_threads=0 / nr=0 / decimate=1 / interlaced=0 / bluray_compat=0 / constrained_intra=0 / bframes=3 / b_pyramid=2 / b_adapt=1 / b_bias=0 / direct=1 / weightb=1 / open_gop=0 / weightp=2 / keyint=250 / keyint_min=25 / scenecut=40 / intra_refresh=0 / rc_lookahead=40 / rc=abr / mbtree=1 / bitrate=3500 / ratetol=1.0 / qcomp=0.60 / qpmin=0 / qpmax=69 / qpstep=4 / ip_ratio=1.40 / aq=1:1.00
Default : Да
Forced : Нет

Аудио
Идентификатор : 2
Формат : AC-3
Формат/Информация : Audio Coding 3
Идентификатор кодека : A_AC3
Продолжительность : 3 ч. 7 м.
Вид битрейта : Постоянный
Битрейт : 192 Кбит/сек
Каналы : 2 канала
Расположение каналов : Front: L R
Частота : 48,0 КГц
Частота кадров : 31,250 кадров/сек (1536 SPF)
Битовая глубина : 16 бит
Метод сжатия : С потерями
Задержка видео : 2 мс.
Размер потока : 258 Мбайт (5%)
Язык : English
ServiceKind/String : Complete Main
Default : Да
Forced : Нет
Скриншоты:


Все одноименные релизы в Клубе

Смотреть Online

Детали торрента:
Название:NASCAR. Monster Energy Cup Series 2018. Folds of Honor QuikTrip 500 (25.02.2018) HDTVRip [H.264/720p-LQ] [hand made 60fps] [EN]
Дата добавления:15 Апр 2018 11:04:21
Размер:4,86 GB
Раздают:
Качают:0
Форум:Авто, Мото

All rights reserved © 2015-2019