TORRENTS45.XYZ

Скачать До края мира / Nan ji zhi lian (2018) WEBRip [H.264/720p-LQ] [MVO] [AD]


До края мира / Nan ji zhi lian (2018) WEBRip
Производство: Китай / C2M Media, Phoenix Legend Films
Жанр: Приключения, драма

Режиссер: У Юинь
Актеры: Марк Чао, Ян Цзышань, Яо Фелипе

Описание:
В Антарктике терпит крушение частный самолет. Двое оставшихся в живых, молодой миллионер и девушка-биолог, пытаются выжить в суровых условиях.


Дата мировой премьеры: 1 февраля 2018

Продолжительность: 01:57:13
Качество видео: WEBRip
Перевод: Многоголосый закадровый, любительский (Колобок)
Субтитры: Китайские (хардсаб)
Реклама: Присутствуют вставки текстовой рекламы

Видео: H.264/AVC, 1280x538, ~4364 Kbps
Аудио: AC-3, 48.0 KHz, 2 ch, 384 Kbps

MediaInfo:


Общее
Полное имя : E:\NNM\До края мира\Till The End of The World 2018 WEBRip 720p-LQ.mkv
Формат : Matroska
Версия формата : Version 2
Размер файла : 3,97 Гбайт
Продолжительность : 1 ч. 57 м.
Режим общего битрейта : Переменный
Общий поток : 4844 Кбит/сек
Программа кодирования : libmatroska 1.4.1

Видео
Идентификатор : 1
Формат : AVC
Формат/Информация : Advanced Video Codec
Профиль формата : High@L4.1
Настройки формата : CABAC / 4 Ref Frames
Параметр CABAC формата : Да
Параметр RefFrames формата : 4 кадра
Идентификатор кодека : V_MPEG4/ISO/AVC
Продолжительность : 1 ч. 57 м.
Вид битрейта : Переменный
Битрейт : 4364 Кбит/сек
Максимальный битрейт : 5000 Кбит/сек
Ширина : 1280 пикселей
Высота : 538 пикселей
Соотношение сторон : 2,40:1
Режим частоты кадров : Постоянный
Частота кадров : 23,976 (24000/1001) кадра/сек
Стандарт вещания : Component
Цветовое пространство : YUV
Субдискретизация насыщенности : 4:2:0
Битовая глубина : 8 бит
Тип развёртки : Прогрессивная
Бит/(Пиксели*Кадры) : 0.264
Размер потока : 3,57 Гбайт (90%)
Default : Нет
Forced : Нет
Цветовой диапазон : Limited
Основные цвета : BT.709
Характеристики трансфера : BT.709
Коэффициенты матрицы : BT.709

Аудио
Идентификатор : 2
Формат : AC-3
Формат/Информация : Audio Coding 3
Идентификатор кодека : A_AC3
Продолжительность : 1 ч. 57 м.
Вид битрейта : Постоянный
Битрейт : 384 Кбит/сек
Каналы : 2 канала
Расположение каналов : Front: L R
Частота : 48,0 КГц
Частота кадров : 31,250 кадров/сек (1536 SPF)
Битовая глубина : 16 бит
Метод сжатия : С потерями
Размер потока : 322 Мбайт (8%)
ServiceKind/String : Complete Main
Default : Нет
Forced : Нет
Скриншоты:


Все одноименные релизы в Клубе

Смотреть Online

http://moonwalk.cc/video/9c52002dcbe98457/iframe
Детали торрента:
Название:До края мира / Nan ji zhi lian (2018) WEBRip [H.264/720p-LQ] [MVO] [AD]
Дата добавления:31 Мар 2018 00:29:31
Размер:3,97 GB
Раздают:5
Качают:0
Форум:Новинки с Рекламой

All rights reserved © 2015-2018