TORRENTS45.XYZ

Скачать Проект «Флорида» / The Florida Project (2017) HDRip [MVO] [AD]


Проект «Флорида» / The Florida Project (2017) HDRip [MVO] [AD]
Производство: США / Cre Film, Freestyle Picture Company, June Pictures
Жанр: Драма

Режиссер: Шон Бэйкер
Актеры: Бруклин Принс, Christopher Rivera, Эйден Малик, Josie Olivo, Valeria Cotto, Эдвард Паган, Bria Vinaite, Patti Wiley, Jasineia Ramos, Уиллем Дефо

Описание:
Это лето Муни и ее друзья не забудут. Каждый день они, переполненные энергией и пренебрежением к взрослым, носятся по волшебному миру одноэтажной Америки на подступах к Диснейленду. Помешать им могут только родители или строгий надзиратель.


Рейтинг MPAA: R (лицам до 17 лет обязательно присутствие взрослого)
Дата мировой премьеры: 22.05.2017
Дата российской премьеры: 08.03.2018

Релиз от: GreenРай Studio

Продолжительность: 01:52:08
Качество видео: HDRip
Перевод: Многоголосый закадровый, любительский (GreenРай Studio)
Субтитры: отсутствуют
Реклама: присутствуют аудио, видео и текстовые вставки рекламы

Видео: Xvid, 720x304, ~1544 Kbps
Аудио: AC3, 2 ch, 192 Kbps

Mediainfo:


General
Complete name : /media/win/TORRENT/UPLOAD TORRENTS/The.Florida.Project.2017.P.HDRip.1400MB.avi
Format : AVI
Format/Info : Audio Video Interleave
File size : 1.37 GiB
Duration : 1 h 52 min
Overall bit rate : 1 745 kb/s
Writing application : VirtualDubMod 1.5.10.2 (build 2540/release)
Writing library : VirtualDubMod build 2540/release

Video
ID : 0
Format : MPEG-4 Visual
Format profile : Advanced Simple@L5
Format settings : BVOP2
Format settings, BVOP : 2
Format settings, QPel : No
Format settings, GMC : No warppoints
Format settings, Matrix : Default (MPEG)
Codec ID : XVID
Codec ID/Hint : XviD
Duration : 1 h 52 min
Bit rate : 1 544 kb/s
Width : 720 pixels
Height : 304 pixels
Display aspect ratio : 2.35:1
Frame rate : 23.976 (24000/1001) FPS
Color space : YUV
Chroma subsampling : 4:2:0
Bit depth : 8 bits
Scan type : Progressive
Compression mode : Lossy
Bits/(Pixel*Frame) : 0.294
Stream size : 1.21 GiB (88%)
Writing library : XviD 1.2.1 (UTC 2008-12-04)

Audio
ID : 1
Format : AC-3
Format/Info : Audio Coding 3
Codec ID : 2000
Duration : 1 h 52 min
Bit rate mode : Constant
Bit rate : 192 kb/s
Channel(s) : 2 channels
Channel positions : Front: L R
Sampling rate : 48.0 kHz
Frame rate : 31.250 FPS (1536 SPF)
Bit depth : 16 bits
Compression mode : Lossy
Stream size : 154 MiB (11%)
Alignment : Split accross interleaves
Interleave, duration : 42 ms (1.00 video frame)
Interleave, preload duration : 500 ms
Service kind : Complete Main

Дополнительная информация:

Оскар, 2018 год
Номинации (1):
Лучшая мужская роль второго плана (Уиллем Дефо)

Золотой глобус, 2018 год
Номинации (1):
Лучшая мужская роль второго плана (Уиллем Дефо)

Премия Гильдии актеров, 2018 год
Номинации (1):
Лучшая мужская роль второго плана (Уиллем Дефо)
Скриншоты:


Все одноименные релизы в Клубе

Смотреть Online

http://37.220.36.15/video/57f7ca15bec0883e/iframe
Детали торрента:
Название:Проект «Флорида» / The Florida Project (2017) HDRip [MVO] [AD]
Дата добавления:13 Фев 2018 15:50:09
Размер:1,37 GB
Раздают:8
Качают:2
Форум:Новинки с Рекламой

All rights reserved © 2015-2018