TORRENTS45.XYZ

Скачать Robert Rich - The Biode (2018) [FLAC|Lossless|WEB-DL|tracks|24Bit] <Ambient>


Robert Rich The Biode
Жанр: Ambient
Издание: Self-released
Источник: ссылка
Продолжительность: 00:57:38

Кодек: FLAC
Битрейт: Lossless|24Bit
Тип рипа: tracks

Треклист:


01. Recalcitrant Malfeasance (03:14)
02. Particles (04:35)
03. Protista Mephista (08:21)
04. Elevate the Hive Mind (07:29)
05. Behind the Staminode (05:27)
06. A Porous Membrane (04:41)
07. Permeate the Divide (05:33)
08. Galvanic Response (08:29)
09. Aerosols for Pluviculture (02:27)
10. Witchetty Vartu (07:22)

Dynamic Range Meter:


foobar2000 1.1 / Dynamic Range Meter 1.1.1
log date: 2018-02-10 12:29:01

--------------------------------------------------------------------------------
Analyzed: Robert Rich / The Biode
--------------------------------------------------------------------------------

DR Peak RMS Duration Track
--------------------------------------------------------------------------------
DR10 -0.40 dB -14.02 dB 3:14 ?-Recalcitrant Malfeasance
DR8 -0.47 dB -11.87 dB 4:35 ?-Particles
DR10 -0.43 dB -13.79 dB 8:21 ?-Protista Mephista
DR9 -0.40 dB -11.93 dB 7:29 ?-Elevate the Hive Mind
DR10 -0.43 dB -13.43 dB 5:27 ?-Behind the Staminode
DR11 -0.40 dB -13.83 dB 4:41 ?-A Porous Membrane
DR9 -0.70 dB -12.23 dB 5:33 ?-Permeate the Divide
DR10 -0.40 dB -13.04 dB 8:29 ?-Galvanic Response
DR10 -0.40 dB -14.74 dB 2:27 ?-Aerosols for Pluviculture
DR8 -0.43 dB -10.64 dB 7:22 ?-Witchetty Vartu
--------------------------------------------------------------------------------

Number of tracks: 10
Official DR value: DR10

Samplerate: 96000 Hz
Channels: 2
Bits per sample: 24
Bitrate: 2583 kbps
Codec: FLAC
================================================================================

Детали торрента:
Название:Robert Rich - The Biode (2018) [FLAC|Lossless|WEB-DL|tracks|24Bit] <Ambient>
Дата добавления:10 Фев 2018 12:36:42
Размер:1,04 GB
Раздают:2
Качают:0
Форум:WEB-DL-Audio

All rights reserved © 2015-2018