TORRENTS45.XYZ

Скачать Беседа с Евгением Федоровым (27.01.2018) WEBRip [H.264/720p-LQ]


Беседа с Евгением Федоровым (27.01.2018) WEBRip
Производство: Телевидение Национально-Освободительного Движения
Жанр: Политика

Описание:
В гостях у депутата Государственной Думы России, координатора НОД Евгения Федорова общественная организация «Федерация ветеранов спорта». Темы беседы: кто управляет миром, существует ли мировое правительство; как работает управление однополярным миром; почему бизнес не хочет возвращать капиталы в Россию; как работает низкая ключевая ставка; «государство-убежище» - русская особенность конкуренции наций; почему Отечество есть главная ценность; для чего была придумана идея заключения «Союзного Договора» в СССР; эффект «ручного управления»; какие возможности для жизни может дать суверенитет.

Продолжительность: 02:01:43
Качество видео: WEBRip

Видео: AVC/H.264, 1280x720 (16:9), ~2600 Kbps
Аудио: AAC, 2 ch, 192 Kbps

Mediainfo:


General
Unique ID : 299112327511932479999964984537898412282 (0xE106F05719EA24205501F999D3C9E8FA)
Complete name : D:\Film\Беседа с Евгением Федоровым 27.01.18.mkv
Format : Matroska
Format version : Version 4 / Version 2
File size : 2.37 GiB
Duration : 2 h 1 min
Overall bit rate mode : Variable
Overall bit rate : 2 791 kb/s
Encoded date : UTC 2018-02-09 18:34:45
Writing application : mkvmerge v20.0.0 ('I Am The Sun') 64-bit
Writing library : libebml v1.3.5 + libmatroska v1.4.8
Cover : Yes
Attachments : cover.png

Video
ID : 2
Format : AVC
Format/Info : Advanced Video Codec
Format profile : High@L4
Format settings : CABAC / 2 Ref Frames
Format settings, CABAC : Yes
Format settings, RefFrames : 2 frames
Format settings, GOP : M=2, N=13
Codec ID : V_MPEG4/ISO/AVC
Duration : 2 h 1 min
Bit rate mode : Variable
Bit rate : 2 596 kb/s
Maximum bit rate : 3 000 kb/s
Width : 1 280 pixels
Height : 720 pixels
Display aspect ratio : 16:9
Frame rate mode : Constant
Frame rate : 25.000 FPS
Color space : YUV
Chroma subsampling : 4:2:0
Bit depth : 8 bits
Scan type : Progressive
Bits/(Pixel*Frame) : 0.113
Stream size : 2.21 GiB (93%)
Language : Russian
Default : Yes
Forced : No

Audio
ID : 1
Format : AAC
Format/Info : Advanced Audio Codec
Format profile : LC
Codec ID : A_AAC-2
Duration : 2 h 1 min
Bit rate : 192 kb/s
Channel(s) : 2 channels
Channel positions : Front: L R
Sampling rate : 48.0 kHz
Frame rate : 46.875 FPS (1024 SPF)
Compression mode : Lossy
Stream size : 167 MiB (7%)
Language : Russian
Default : Yes
Forced : No
Скриншоты:


Все одноименные релизы в Клубе
Детали торрента:
Название:Беседа с Евгением Федоровым (27.01.2018) WEBRip [H.264/720p-LQ]
Дата добавления:09 Фев 2018 21:58:05
Размер:2,37 GB
Раздают:
Качают:0
Форум:Публицистика, политика и экономика

All rights reserved © 2015-2019