TORRENTS45.XYZ

Скачать Победы 2017 года. Специальный обзор (24.01.2018) IPTVRip [H.264/720p-LQ]


Победы 2017 года. Специальный обзор (24.01.2018) IPTVRip [H.264/720p-LQ]
Телекомпания: Матч ТВ HD
Жанр: Документальный, Спорт

Описание:
Документальный фильм Матч ТВ о самых ярких победах российских спортсменов за 2017 год.

Продолжительность: 01:26:34
Качество видео: IPTVRip
Язык озвучки: Русский
Субтитры: отсутствуют

Видео: AVC/H.264, 1280x720 (16:9), ~4011 Kbps
Аудио: AC3, 2 ch, 48 kHz, 128 Kbps

Mediainfo:


Общее
Уникальный идентификатор : 126566487108787684909896724427042871358 (0x5F37D19975E3E0BBB61519894BE2583E)
Полное имя : F:\videos\(24.01.2018)_Победы 2017 года. Специальный обзор.mkv
Формат : Matroska
Версия формата : Version 4 / Version 2
Размер файла : 2,50 Гбайт
Продолжительность : 1 ч. 26 м.
Общий поток : 4141 Кбит/сек
Дата кодирования : UTC 2018-02-06 06:47:42
Программа кодирования : mkvmerge v20.0.0 ('I Am The Sun') 32-bit
Библиотека кодирования : libebml v1.3.5 + libmatroska v1.4.8

Видео
Идентификатор : 1
Формат : AVC
Формат/Информация : Advanced Video Codec
Профиль формата : High@L4
Настройки формата : CABAC / 4 Ref Frames
Параметр CABAC формата : Да
Параметр RefFrames формата : 4 кадра
Идентификатор кодека : V_MPEG4/ISO/AVC
Продолжительность : 1 ч. 26 м.
Битрейт : 4011 Кбит/сек
Ширина : 1280 пикселей
Высота : 720 пикселей
Соотношение сторон : 16:9
Режим частоты кадров : Постоянный
Частота кадров : 24,848 кадров/сек
Частота кадров в оригинале : 24,855 кадров/сек
Цветовое пространство : YUV
Субдискретизация насыщенности : 4:2:0
Битовая глубина : 8 бит
Тип развёртки : Прогрессивная
Бит/(Пиксели*Кадры) : 0.175
Размер потока : 2,43 Гбайт (97%)
Default : Да
Forced : Нет

Аудио
Идентификатор : 2
Формат : AC-3
Формат/Информация : Audio Coding 3
Параметр Endianness формата : Big
Идентификатор кодека : A_AC3
Продолжительность : 1 ч. 26 м.
Вид битрейта : Постоянный
Битрейт : 128 Кбит/сек
Каналы : 2 канала
Расположение каналов : Front: L R
Частота : 48,0 КГц
Частота кадров : 31,250 кадров/сек (1536 SPF)
Битовая глубина : 16 бит
Метод сжатия : С потерями
Размер потока : 79,3 Мбайт (3%)
Язык : Russian
ServiceKind/String : Complete Main
Default : Да
Forced : Нет
Скриншоты:


Все одноименные релизы в Клубе
Детали торрента:
Название:Победы 2017 года. Специальный обзор (24.01.2018) IPTVRip [H.264/720p-LQ]
Дата добавления:06 Фев 2018 10:49:53
Размер:2,5 GB
Раздают:
Качают:0
Форум:Архив Документалистики и TV

All rights reserved © 2015-2019