TORRENTS45.XYZ

Скачать Видоизмененный углерод / Altered Carbon (2018) WEBRip [H.264/1080p] (сезон 1, серии 1-10 из 10) NewStudio


Видоизмененный углерод / Altered Carbon (2018) WEBRip [H.264/1080p] (сезон 1, серии 1-10 из 10) NewStudio
Производство: США, Mythology Entertainment, Skydance Television
Жанр: фантастика, триллер, драма

Режиссер: Ута Бризвитц, Питер Хор, Ник Харран и др.
Актеры: Юэль Киннаман, Джеймс Пьюрфой, Марта Игареда, Крис Коннер, Антонио Марциале, Кристин Леман, Хиро Канагава, Валид Зуэйтер, Марлин Форте, Тич Грант и др.

Описание:
Земля, XXVII век. Мир, в котором появилась возможность «сгружать» человеческое сознание и личность из одного тела в другое. Идеальный мир и для преступников, и для полицейских, и для армии, но вряд ли идеальный для бывшего военного спецназовца Такеси Ковача, которого миллиардер Бэнкрофт нанял для расследования гибели одного из своих тел. Внешне — явное самоубийство. В действительности — явное убийство. Вот только воспоминания об убийце уничтожены вместе с телом-клоном.


Дата мировой премьеры: 11 января 2018

Продолжительность: ~01:00:00 серия
Качество видео: WEBRip
Перевод: многоголосый закадровый, профессиональный - NewStudio (ненормативная лексика)
Субтитры: русские, английские

ВНИМАНИЕ! Присутствует ненормативная лексика.

Видео: AVC/H.264, 1920x960, ~11,5 Mbps
Аудио #1: AC3, 384 kbps, 6 ch, 48 kHz - русский, многоголосый закадровый
Аудио #2: AC3, 384 kbps, 6 ch, 48 kHz - английский

MediaInfo

Общее
Уникальный идентификатор : 226204064376588664098734913850456330118 (0xAA2D516FD2131E0E96A1182AE43ECF86)
Полное имя : G:\Altered Carbon - Видоизменённый углерод. Сезон 1. NewStudio. 1080p\Altered.Carbon.s01e01.WEBRip.1080p.NewStudio.mkv
Формат : Matroska
Версия формата : Version 4 / Version 2
Размер файла : 5,14 Гбайт
Продолжительность : 58 м. 53 с.
Общий поток : 12,5 Мбит/сек
Название фильма : Altered Carbon s01e01 @ torrents45.xyz />Дата кодирования : UTC 2018-02-05 16:56:00
Программа кодирования : mkvmerge v6.9.1 ('Blue Panther') 64bit built on Apr 18 2014 18:23:38
Библиотека кодирования : libebml v1.3.0 + libmatroska v1.4.1

Видео
Идентификатор : 1
Формат : AVC
Формат/Информация : Advanced Video Codec
Профиль формата : High@L4.1
Настройки формата : CABAC / 4 Ref Frames
Параметр CABAC формата : Да
Параметр RefFrames формата : 4 кадра
Идентификатор кодека : V_MPEG4/ISO/AVC
Продолжительность : 58 м. 53 с.
Битрейт : 11,5 Мбит/сек
Ширина : 1920 пикселей
Высота : 960 пикселей
Соотношение сторон : 2,000
Режим частоты кадров : Постоянный
Частота кадров : 23,976 (24000/1001) кадра/сек
Цветовое пространство : YUV
Субдискретизация насыщенности : 4:2:0
Битовая глубина : 8 бит
Тип развёртки : Прогрессивная
Бит/(Пиксели*Кадры) : 0.260
Размер потока : 4,72 Гбайт (92%)
Библиотека кодирования : x264 core 152 r2851kMod ba24899
Настройки программы : cabac=1 / ref=4 / deblock=1:-3:-3 / analyse=0x3:0x133 / me=umh / subme=10 / psy=1 / fade_compensate=0.00 / psy_rd=1.00:0.00 / mixed_ref=1 / me_range=48 / chroma_me=1 / trellis=2 / 8x8dct=1 / cqm=0 / deadzone=21,11 / fast_pskip=0 / chroma_qp_offset=-2 / threads=12 / lookahead_threads=2 / sliced_threads=0 / nr=0 / decimate=0 / interlaced=0 / bluray_compat=0 / constrained_intra=0 / bframes=8 / b_pyramid=2 / b_adapt=2 / b_bias=0 / direct=3 / weightb=1 / open_gop=0 / weightp=2 / keyint=250 / keyint_min=23 / scenecut=40 / intra_refresh=0 / rc=crf / mbtree=0 / crf=17.0000 / qcomp=0.60 / qpmin=0 / qpmax=69 / qpstep=4 / ip_ratio=1.30 / pb_ratio=1.20 / aq=3:0.80
Язык : English
Default : Да
Forced : Нет

Аудио #1
Идентификатор : 2
Формат : AC-3
Формат/Информация : Audio Coding 3
Идентификатор кодека : A_AC3
Продолжительность : 58 м. 53 с.
Вид битрейта : Постоянный
Битрейт : 384 Кбит/сек
Каналы : 6 каналов
Расположение каналов : Front: L C R, Side: L R, LFE
Частота : 48,0 КГц
Частота кадров : 31,250 кадров/сек (1536 SPF)
Битовая глубина : 16 бит
Метод сжатия : С потерями
Размер потока : 162 Мбайт (3%)
Язык : Russian
ServiceKind/String : Complete Main
Default : Да
Forced : Нет

Аудио #2
Идентификатор : 3
Формат : AC-3
Формат/Информация : Audio Coding 3
Идентификатор кодека : A_AC3
Продолжительность : 58 м. 53 с.
Вид битрейта : Постоянный
Битрейт : 384 Кбит/сек
Каналы : 6 каналов
Расположение каналов : Front: L C R, Side: L R, LFE
Частота : 48,0 КГц
Частота кадров : 31,250 кадров/сек (1536 SPF)
Битовая глубина : 16 бит
Метод сжатия : С потерями
Размер потока : 162 Мбайт (3%)
Язык : English
ServiceKind/String : Complete Main
Default : Нет
Forced : Нет

Текст #1
Идентификатор : 4
Формат : UTF-8
Идентификатор кодека : S_TEXT/UTF8
Идентификатор кодека/Информация : UTF-8 Plain Text
Язык : Russian
Default : Нет
Forced : Нет

Текст #2
Идентификатор : 5
Формат : UTF-8
Идентификатор кодека : S_TEXT/UTF8
Идентификатор кодека/Информация : UTF-8 Plain Text
Язык : English
Default : Нет
Forced : Нет

Список серий

01. Out of the Past / Из прошлого
02. Fallen Angel / Падший Ангел
03. In a Lonely Place / В месте одиночества
04. Force of Evil / Сила зла
05. The Wrong Man / Не тот человек
06. Man with My Face / Человек с моим лицом
07. Nora Inu / Бездомный пёс
08. Clash by Night / Стычка в ночи
09. Rage in Heaven / Гнев в раю
10. The Killers / Убийцы
Скриншоты:


Все одноименные релизы в Клубе

Смотреть Online

Детали торрента:
Название:Видоизмененный углерод / Altered Carbon (2018) WEBRip [H.264/1080p] (сезон 1, серии 1-10 из 10) NewStudio
Дата добавления:13 Фев 2018 01:41:37
Размер:45,7 GB
Раздают:37
Качают:3
Форум:Зарубежные сериалы

All rights reserved © 2015-2019