TORRENTS45.XYZ

Скачать Cкелетон. Кубок мира 2017-2018. 6-й Этап. Альтенберг (Германия). Женщины 2-я попытка (05.01.2018) WEB-DL [H.264/720p-LQ] [EN]


Cкелетон. Кубок мира 2017-2018. 6-й Этап. Альтенберг (Германия). Женщины 2-я попытка (05.01.2018) WEB-DL [H.264/720p-LQ] [EN]
Телекомпания: IBSF TV
Жанр: Спорт

Описание: 05 января 2018 года, пятница. 17:30 МСК
6-й Этап Кубка мира 2017-2018 по бобслею и скелетону. Альтенберг (Германия)
Cкелетон. Женщины 2-я попытка
Стадион: DKB-Эйсканал (Альтенберг, Германия)

Продолжительность: 00:54:48
Качество видео: WEB-DL
Язык озвучки: Английский
Субтитры: отсутствуют

Видео: AVC/H.264, 1280x720 (16:9), ~1862 Kbps
Аудио: AAC, 2 ch, 44,1 kHz, ~126 Kbps

Mediainfo:


Общее
Уникальный идентификатор : 172368270419537188568938376907521286306 (0x81ACEBDD5A42B1349AD93114329C60A2)
Полное имя : F:\SPORT\Бобслей\(05.01.2018)_IBSF 6st.WC 2017-2018.Altenberg(GER).1. Womens Skeleton Heat 2.mkv
Формат : Matroska
Версия формата : Version 4 / Version 2
Размер файла : 780 Мбайт
Продолжительность : 54 м. 47 с.
Общий поток : 1990 Кбит/сек
Дата кодирования : UTC 2018-01-10 17:02:27
Программа кодирования : mkvmerge v19.0.0 ('Brave Captain') 32-bit
Библиотека кодирования : libebml v1.3.5 + libmatroska v1.4.8

Видео
Идентификатор : 1
Формат : AVC
Формат/Информация : Advanced Video Codec
Профиль формата : Main@L3.1
Настройки формата : CABAC / 3 Ref Frames
Параметр CABAC формата : Да
Параметр RefFrames формата : 3 кадра
Идентификатор кодека : V_MPEG4/ISO/AVC
Продолжительность : 54 м. 47 с.
Битрейт : 1862 Кбит/сек
Ширина : 1280 пикселей
Высота : 720 пикселей
Соотношение сторон : 16:9
Режим частоты кадров : Постоянный
Частота кадров : 25,000 кадров/сек
Цветовое пространство : YUV
Субдискретизация насыщенности : 4:2:0
Битовая глубина : 8 бит
Тип развёртки : Прогрессивная
Бит/(Пиксели*Кадры) : 0.081
Размер потока : 730 Мбайт (94%)
Default : Да
Forced : Нет
Цветовой диапазон : Limited
Основные цвета : BT.709
Характеристики трансфера : BT.709
Коэффициенты матрицы : BT.709

Аудио
Идентификатор : 2
Формат : AAC
Формат/Информация : Advanced Audio Codec
Профиль формата : LC
Идентификатор кодека : A_AAC-2
Продолжительность : 54 м. 47 с.
Битрейт : 126 Кбит/сек
Каналы : 2 канала
Расположение каналов : Front: L R
Частота : 44,1 КГц
Частота кадров : 43,066 кадра/сек (1024 SPF)
Метод сжатия : С потерями
Размер потока : 49,2 Мбайт (6%)
Язык : English
Default : Да
Forced : Нет
Скриншоты:


Все одноименные релизы в Клубе
Детали торрента:
Название:Cкелетон. Кубок мира 2017-2018. 6-й Этап. Альтенберг (Германия). Женщины 2-я попытка (05.01.2018) WEB-DL [H.264/720p-LQ] [EN]
Дата добавления:16 Янв 2018 19:07:56
Размер:780 MB
Раздают:
Качают:0
Форум:Архив Документалистики и TV

All rights reserved © 2015-2018