TORRENTS45.XYZ

Скачать Снеговик / The Snowman (2017) WEB-DL [720p] ATV


Снеговик / The Snowman (2017) WEB-DL [720p] ATV
«Скоро выпадет первый снег и начнется опасная игра»

Год выпуска: 2017
Производство: Великобритания, США, Швеция
Жанр: Ужасы, триллер, драма, криминал, детектив
Продолжительность: 1:59

Перевод: Дублированный (iTunes)
Субтитры: Русские форсированные, Русские
Режиссер: Томас Альфредсон
Актеры: Майкл Фассбендер, Ребекка Фергюсон, Шарлотта Генсбур, Йонас Карлссон, Майкл Йэтс, Ронан Вайберт, Дж.К. Симмонс, Вэл Килмер, Давид Денсик, Тоби Джонс

Мировая премьера: 7 октября 2017



Описание: В течение многих лет в день, когда выпадает первый снег, бесследно исчезают замужние женщины. Сложить все части загадочного пазла под силу только знаменитому детективу. Он потерял покой и сон, ведь время следующего снегопада неумолимо приближается.
Качество: WEB-DL 720p
Контейнер: M4V
Видео: H.264, 1280x690, 1.85:1, 4 281 Kbps, 23.976 fps

Аудио 1: Русский/Дублированный (iTunes), AAC / 2.0 / 160 Kbps / 48.0 KHz
Аудио 2: Английский/Оригинальная дорожка , AAC / 2.0 / 160 Kbps / 48.0 KHz
Аудио 3: Русский/Дублированный (iTunes), AC-3 / 5.1 / 384 Kbps / 48.0 KHz
Аудио 4: Английский/Оригинальная дорожка , AC-3 / 5.1 / 384 Kbps / 48.0 KHz

iTunes Meta Tags

Код: выделить все

Sort Name: Snowman
XID: Apple:vendor_id:2017-572230
contentID: 1291118913
Copyright: © 2017 Universal Studios. All Rights Reserved.
Screenwriters: Питер Строхан, Хуссейн Амини, Сорен Свейструп
Producers: Томас Альфредсон, Тим Беван, Лиза Чейсин
Director: Томас Альфредсон
Cast: Майкл Фассбендер, Ребекка Фергюсон, Шарлотта Генсбур, Йонас Карлссон, Майкл Йэтс, Ронан Вайберт, Дж.К. Симмонс, Вэл Килмер, Давид Денсик, Тоби Джонс
Studio: Universal Pictures
Rating: 5
Long Description: В течение многих лет в день, когда выпадает первый снег, бесследно исчезают замужние женщины. Сложить все части загадочного пазла под силу только знаменитому детективу. Он потерял покой и сон, ведь время следующего снегопада неумолимо приближается.
Description: В течение многих лет в день, когда выпадает первый снег, бесследно исчезают замужние женщины. Сложить все части загадочного пазла под силу только знаменитому детективу. Он потерял покой и сон, ведь время следующего снегопада неумолимо приближается.
Release Date: 2017-10-07T08:00:00Z
Genre: Thriller
Artist: Tomas Alfredson
Name: The Snowman (2017)

MediaInfo

Код: выделить все

General
Complete name : /Users/imac/HandBrake/Snowman.WEB-DL.720p.m4v
Format : MPEG-4
Codec ID : M4V
File size : 4.48 GiB
Duration : 1h 59mn
Overall bit rate mode : Variable
Overall bit rate : 5 375 Kbps
Movie name : The Snowman (2017)
Performer : Tomas Alfredson
Director : Томас Альфредсон
Actor : Майкл Фассбендер / Ребекка Фергюсон / Шарлотта Генсбур / Йонас Карлссон / Майкл Йэтс / Ронан Вайберт / Дж.К. Симмонс / Вэл Килмер / Давид Денсик / Тоби Джонс
Screenplay by : Питер Строхан / Хуссейн Амини / Сорен Свейструп
Producer : Томас Альфредсон / Тим Беван / Лиза Чейсин
Production studio : Universal Pictures
Genre : Thriller
ContentType : Short Film
Description : В течение многих лет в день, когда выпадает первый снег, бесследно исчезают замужние женщины. Сложить все части загадочного пазла под силу только знаменитому детективу. Он потерял покой и сон, ведь время следующего снегопада неумолимо приближается.
Recorded date : UTC 2017-10-07 08:00:00
Encoded date : UTC 2017-12-22 16:02:13
Tagged date : UTC 2017-12-22 16:04:58
Copyright : © 2017 Universal Studios. All Rights Reserved.
Cover : Yes
Rating : None
Title/Sort : Snowman
LongDescription : В течение многих лет в день, когда выпадает первый снег, бесследно исчезают замужние женщины. Сложить все части загадочного пазла под силу только знаменитому детективу. Он потерял покой и сон, ведь время следующего снегопада неумолимо приближается.
HDVideo : Yes
AppleStoreCatalogID : 1291118913
Vendor : Apple:vendor_id:2017-572230
ContentRating : mpaa|R|400|

Video #1
ID : 1
Format : AVC
Format/Info : Advanced Video Codec
Format profile : High@L4.1
Format settings, CABAC : Yes
Format settings, ReFrames : 4 frames
Codec ID : avc1
Codec ID/Info : Advanced Video Coding
Duration : 1h 59mn
Bit rate : 4 281 Kbps
Width : 1 280 pixels
Height : 690 pixels
Display aspect ratio : 1.85:1
Frame rate mode : Variable
Frame rate : 23.976 fps
Minimum frame rate : 23.810 fps
Maximum frame rate : 24.390 fps
Color space : YUV
Chroma subsampling : 4:2:0
Bit depth : 8 bits
Scan type : Progressive
Bits/(Pixel*Frame) : 0.202
Stream size : 3.57 GiB (80%)
Title : Main Program
Language : English
Encoded date : UTC 2017-12-22 16:02:13
Tagged date : UTC 2017-12-22 16:03:54

Video #2
ID : 9
Format : JPEG
Codec ID : jpeg
Duration : 1h 59mn
Bit rate mode : Variable
Bit rate : 1 000 bps
Width : 640 pixels
Height : 345 pixels
Display aspect ratio : 1.85:1
Frame rate mode : Variable
Frame rate : 0.003 fps
Minimum frame rate : 0.002 fps
Maximum frame rate : 0.004 fps
Color space : YUV
Chroma subsampling : 4:2:0
Bit depth : 8 bits
Compression mode : Lossy
Bits/(Pixel*Frame) : 1.510
Stream size : 814 KiB (0%)
Title : Chapter Images
Language : English
Encoded date : UTC 2017-12-22 16:04:01
Tagged date : UTC 2017-12-22 16:04:01

Audio #1
ID : 2
Format : AAC
Format/Info : Advanced Audio Codec
Format profile : LC
Codec ID : 40
Duration : 1h 59mn
Source duration : 1h 59mn
Bit rate mode : Variable
Bit rate : 158 Kbps
Maximum bit rate : 240 Kbps
Channel(s) : 2 channels
Channel positions : Front: L R
Sampling rate : 48.0 KHz
Compression mode : Lossy
Stream size : 135 MiB (3%)
Source stream size : 135 MiB (3%)
Title : Russian Stereo
Language : Russian
Encoded date : UTC 2017-12-22 16:02:13
Tagged date : UTC 2017-12-22 16:02:21

Audio #2
ID : 3
Format : AAC
Format/Info : Advanced Audio Codec
Format profile : LC
Codec ID : 40
Duration : 1h 59mn
Source duration : 1h 59mn
Bit rate mode : Variable
Bit rate : 158 Kbps
Maximum bit rate : 246 Kbps
Channel(s) : 2 channels
Channel positions : Front: L R
Sampling rate : 48.0 KHz
Compression mode : Lossy
Stream size : 135 MiB (3%)
Source stream size : 135 MiB (3%)
Title : English Stereo
Language : English
Encoded date : UTC 2017-12-22 16:02:13
Tagged date : UTC 2017-12-22 16:02:21

Audio #3
ID : 4
Format : AC-3
Format/Info : Audio Coding 3
Mode extension : CM (complete main)
Format settings, Endianness : Big
Codec ID : ac-3
Duration : 1h 59mn
Bit rate mode : Constant
Bit rate : 384 Kbps
Channel(s) : 6 channels
Channel positions : Front: L C R, Side: L R, LFE
Sampling rate : 48.0 KHz
Bit depth : 16 bits
Compression mode : Lossy
Stream size : 328 MiB (7%)
Title : Russian DD 5.1
Language : Russian
Encoded date : UTC 2017-12-22 16:02:13
Tagged date : UTC 2017-12-22 16:02:21

Audio #4
ID : 5
Format : AC-3
Format/Info : Audio Coding 3
Mode extension : CM (complete main)
Format settings, Endianness : Big
Codec ID : ac-3
Duration : 1h 59mn
Bit rate mode : Constant
Bit rate : 384 Kbps
Channel(s) : 6 channels
Channel positions : Front: L C R, Side: L R, LFE
Sampling rate : 48.0 KHz
Bit depth : 16 bits
Compression mode : Lossy
Stream size : 328 MiB (7%)
Title : English DD 5.1
Language : English
Encoded date : UTC 2017-12-22 16:02:13
Tagged date : UTC 2017-12-22 16:02:21

Text #1
ID : 6
Format : Timed Text
Muxing mode : sbtl
Codec ID : tx3g
Duration : 1h 43mn
Bit rate mode : Variable
Bit rate : 2 bps
Stream size : 1.49 KiB (0%)
Title : Russian forced
Language : Russian
Encoded date : UTC 2017-12-22 16:02:13
Tagged date : UTC 2017-12-22 16:02:20

Text #2
ID : 7
Format : Timed Text
Muxing mode : sbtl
Codec ID : tx3g
Duration : 1h 54mn
Bit rate mode : Variable
Bit rate : 66 bps
Stream size : 54.9 KiB (0%)
Title : Russian full
Language : Russian
Encoded date : UTC 2017-12-22 16:02:13
Tagged date : UTC 2017-12-22 16:02:21

Menu #1
00:00:00.000 : 1
00:06:24.009 : 2
00:13:44.074 : 3
00:20:06.664 : 4
00:24:22.378 : 5
00:29:26.265 : 6
00:33:10.322 : 7
00:42:18.286 : 8
00:50:45.126 : 9
00:55:34.748 : 10
01:02:20.904 : 11
01:08:07.458 : 12
01:12:25.215 : 13
01:17:32.397 : 14
01:23:56.489 : 15
01:29:07.883 : 16
01:35:46.323 : 17
01:42:40.028 : 18
01:50:34.752 : 19
01:54:24.982 : 20

Menu #2
ID : 8
Codec ID : text
Duration : 1h 59mn
Language : English
Encoded date : UTC 2017-12-22 16:03:54
Tagged date : UTC 2017-12-22 16:03:54
00:00:00.000 : 1
00:06:24.009 : 2
00:13:44.074 : 3
00:20:06.664 : 4
00:24:22.378 : 5
00:29:26.265 : 6
00:33:10.322 : 7
00:42:18.286 : 8
00:50:45.126 : 9
00:55:34.748 : 10
01:02:20.904 : 11
01:08:07.458 : 12
01:12:25.215 : 13
01:17:32.397 : 14
01:23:56.489 : 15
01:29:07.883 : 16
01:35:46.323 : 17
01:42:40.028 : 18
01:50:34.752 : 19
01:54:24.982 : 20
Bit rate mode : VBR
Скриншоты:







Релиз подготовлен для просмотра на Apple TV, iPad, iPhone, iPod Touch.
Для просмотра данного релиза на компьютере с ОС Windows рекомендуется использовать VLC media player

Смотреть Online

Детали торрента:
Название:Снеговик / The Snowman (2017) WEB-DL [720p] ATV
Дата добавления:22 Дек 2017 19:20:49
Размер:4,48 GB
Раздают:2
Качают:0
Форум:Зарубежное видео HD для устройств Apple

All rights reserved © 2015-2019