TORRENTS45.XYZ

Скачать VA - Italo Golden Classics (2 CD) (1996) [FLAC|Lossless|image + .cue] <Italo Disco>


VA - Italo Golden Classics (2 CD) (1996)
Жанр: Italo Disco
Издание: ZYX Music - ZYX 50001-2
Продолжительность: 02:23:00

Кодек: FLAC
Битрейт: Lossless
Тип рипа: image + .cue

Треклист:
CD 1:

01. Sandy Marton - People From Ibiza
02. Fun Fun - Happy Station
03. Radiorama - Chance To Desire
04. Savage - Don't Cry Tonight
05. Joe Yellow - Lover To Lover
06. Miko Mission - How Old Are You?
07. Koto - Japanese War Game
08. 49ers - Touch Me
09. Ken Laszlo - Hey Hey Guy
10. Den Harrow - To Meet Me

Продолжение CD 1:

Пpодолжительность: 01:13:09
11. Valerie Dore - The Night
12. Gaz Nevada - I. C. Love Affair

Отчёт EAC:


Exact Audio Copy V1.0 beta 6 from 9. April 2015

Отчёт EAC об извлечении, выполненном 13. декабря 2017, 11:17

Various Artists / Italo Golden Classics

Дисковод: HL-DT-STBDDVDRW GGC-H20L Adapter: 1 ID: 0

Режим чтения : Достоверность
Использование точного потока : Да
Отключение кэша аудио : Да
Использование указателей C2 : Нет

Коррекция смещения при чтении : 667
Способность читать области Lead-in и Lead-out : Нет
Заполнение пропущенных сэмплов тишиной : Да
Удаление блоков с тишиной в начале и конце : Нет
При вычислениях CRC использовались нулевые сэмплы : Да
Интерфейс : Встроенный Win32-интерфейс для Win NT/2000

Выходной формат : Пользовательский кодировщик
Выбранный битрейт : 128 kBit/s
Качество : Высокий
Добавление ID3-тега : Нет
Утилита сжатия : C:\Program Files (x86)\Exact Audio Copy\Flac\flac.exe
Дополнительные параметры : -V -8 -T "Date=%year%" -T "Genre=%genre%" %source%

TOC извлечённого CD

Трек | Старт | Длительность | Начальный сектор | Конечный сектор
---------------------------------------------------------------------
1 | 0:00.00 | 6:11.55 | 0 | 27879
2 | 6:11.55 | 5:54.16 | 27880 | 54445
3 | 12:05.71 | 4:05.04 | 54446 | 72824
4 | 16:11.00 | 6:47.35 | 72825 | 103384
5 | 22:58.35 | 4:18.70 | 103385 | 122804
6 | 27:17.30 | 7:15.33 | 122805 | 155462
7 | 34:32.63 | 6:36.50 | 155463 | 185212
8 | 41:09.38 | 5:53.71 | 185213 | 211758
9 | 47:03.34 | 7:37.28 | 211759 | 246061
10 | 54:40.62 | 6:15.10 | 246062 | 274196
11 | 60:55.72 | 5:46.11 | 274197 | 300157
12 | 66:42.08 | 6:26.58 | 300158 | 329165

Характеристики диапазона извлечения и сообщения об ошибках

Выбранный диапазон

Имя файла D:\Music\Various Artists - Italo Golden Classics.wav

Пиковый уровень 94.9 %
Скорость извлечения 7.5 X
Качество диапазона 100.0 %
CRC теста B175B1A1
CRC копии B175B1A1
Копирование... OK

Ошибок не произошло

Конец отчёта

==== Контрольная сумма отчёта 29472455501C7691FC2886EEE8D6F98D974287655FF0CB5C2B53FDE63880C62E ====

Cue Sheet (.cue):


REM DATE 1996
REM DISCID A911240C
REM COMMENT "ExactAudioCopy v1.0b6"
PERFORMER "Various Artists"
TITLE "Italo Golden Classics"
FILE "Various Artists - Italo Golden Classics CD1.flac" WAVE
TRACK 01 AUDIO
TITLE "People From Ibiza"
PERFORMER "Sandy Marton"
INDEX 01 00:00:00
TRACK 02 AUDIO
TITLE "Happy Station"
PERFORMER "Fun Fun"
INDEX 00 06:09:54
INDEX 01 06:11:55
TRACK 03 AUDIO
TITLE "Chance to Desire"
PERFORMER "Radiorama"
INDEX 00 12:03:70
INDEX 01 12:05:71
TRACK 04 AUDIO
TITLE "Don’t Cry Tonight"
PERFORMER "Savage"
INDEX 00 16:08:74
INDEX 01 16:11:00
TRACK 05 AUDIO
TITLE "Lover to Lover"
PERFORMER "Joe Yellow"
INDEX 00 22:56:38
INDEX 01 22:58:35
TRACK 06 AUDIO
TITLE "How Old Are You?"
PERFORMER "Miko Mission"
INDEX 00 27:15:29
INDEX 01 27:17:30
TRACK 07 AUDIO
TITLE "Japanese War Game"
PERFORMER "Koto"
INDEX 00 34:30:62
INDEX 01 34:32:63
TRACK 08 AUDIO
TITLE "Touch Me"
PERFORMER "49ers"
INDEX 00 41:07:37
INDEX 01 41:09:38
TRACK 09 AUDIO
TITLE "Hey Hey Guy"
PERFORMER "Ken Laszlo"
INDEX 00 47:01:33
INDEX 01 47:03:34
TRACK 10 AUDIO
TITLE "To Meet Me"
PERFORMER "Den Harrow"
INDEX 00 54:38:61
INDEX 01 54:40:62
TRACK 11 AUDIO
TITLE "The Night"
PERFORMER "Valerie Dore"
INDEX 00 60:53:71
INDEX 01 60:55:72
TRACK 12 AUDIO
TITLE "I.C. Love Affair"
PERFORMER "Gaznevada"
INDEX 00 66:40:25
INDEX 01 66:42:08

Отчёт auCDtect Task manager:


-----------------------

DON'T MODIFY THIS FILE

-----------------------

PERFORMER: auCDtect Task Manager, ver. 1.6.0 RC1 build 1.6.0.1
Copyright (c) 2008-2010 y-soft. All rights reserved
http://y-soft.org

ANALYZER: auCDtect: CD records authenticity detector, version 0.8.2
Copyright (c) 2004 Oleg Berngardt. All rights reserved.
Copyright (c) 2004 Alexander Djourik. All rights reserved.

FILE: Various Artists - Italo Golden Classics CD1.flac
Size: 476647790 Hash: 48D8C1DFB91885FDB84BE0868BF2BB27 Accuracy: -m0
Conclusion: CDDA 100%
Signature: D48C126686F388AEA207F771E1584CCCDAAAAE52

CD 2:

Пpодолжительность: 01:09:52
01. P. Lion - Happy Children
02. Kano - Another Life
03. Lee Marrow - Shanghai
04. Doctor's Cat - Feel The Drive
05. Scotch - Disco Band
06. Tullio De Piscopo - Stop Bajon
07. Max Him - Lady Fantasy
08. FPI Project - Going Back To My Roots
09. Ryan Paris - Dolce Vita
10. Tony Esposito - Kalimba De Luna
11. Hipnosis - Pulstar
12. Brian Ice - Talking To The Night

Отчёт EAC:


Exact Audio Copy V1.0 beta 6 from 9. April 2015

Отчёт EAC об извлечении, выполненном 13. декабря 2017, 12:32

Various / Italo Golden Classics

Дисковод: HL-DT-STBDDVDRW GGC-H20L Adapter: 1 ID: 0

Режим чтения : Достоверность
Использование точного потока : Да
Отключение кэша аудио : Да
Использование указателей C2 : Нет

Коррекция смещения при чтении : 667
Способность читать области Lead-in и Lead-out : Нет
Заполнение пропущенных сэмплов тишиной : Да
Удаление блоков с тишиной в начале и конце : Нет
При вычислениях CRC использовались нулевые сэмплы : Да
Интерфейс : Встроенный Win32-интерфейс для Win NT/2000

Выходной формат : Пользовательский кодировщик
Выбранный битрейт : 128 kBit/s
Качество : Высокий
Добавление ID3-тега : Нет
Утилита сжатия : C:\Program Files (x86)\Exact Audio Copy\Flac\flac.exe
Дополнительные параметры : -V -8 -T "Date=%year%" -T "Genre=%genre%" %source%

TOC извлечённого CD

Трек | Старт | Длительность | Начальный сектор | Конечный сектор
---------------------------------------------------------------------
1 | 0:00.00 | 5:55.40 | 0 | 26664
2 | 5:55.40 | 3:53.31 | 26665 | 44170
3 | 9:48.71 | 5:21.74 | 44171 | 68319
4 | 15:10.70 | 6:21.42 | 68320 | 96936
5 | 21:32.37 | 5:04.16 | 96937 | 119752
6 | 26:36.53 | 7:14.25 | 119753 | 152327
7 | 33:51.03 | 6:15.34 | 152328 | 180486
8 | 40:06.37 | 5:27.23 | 180487 | 205034
9 | 45:33.60 | 7:31.55 | 205035 | 238914
10 | 53:05.40 | 5:02.40 | 238915 | 261604
11 | 58:08.05 | 5:52.11 | 261605 | 288015
12 | 64:00.16 | 5:51.66 | 288016 | 314406

Характеристики диапазона извлечения и сообщения об ошибках

Выбранный диапазон

Имя файла D:\Music\Various - Italo Golden Classics.wav

Пиковый уровень 94.9 %
Скорость извлечения 8.1 X
Качество диапазона 100.0 %
CRC теста 5AF00A85
CRC копии 5AF00A85
Копирование... OK

Ошибок не произошло

Конец отчёта

==== Контрольная сумма отчёта D8B58226DB000BF407781BCFB50B5585CBE8360011E3E025A34BFF481E8DBC42 ====

Cue Sheet (.cue):


REM DISCID AD10600C
REM COMMENT "ExactAudioCopy v1.0b6"
PERFORMER "Various"
TITLE "Italo Golden Classics"
FILE "Various Artists - Italo Golden Classics CD2.flac" WAVE
TRACK 01 AUDIO
TITLE "Happy Children"
PERFORMER "P. Lion , "
INDEX 01 00:00:00
TRACK 02 AUDIO
TITLE "Another Life"
PERFORMER "Kano , "
INDEX 00 05:53:57
INDEX 01 05:55:40
TRACK 03 AUDIO
TITLE "Shanghai"
PERFORMER "Lee Marrow , "
INDEX 00 09:46:70
INDEX 01 09:48:71
TRACK 04 AUDIO
TITLE "Feel The Drive"
PERFORMER "Doctor's Cat , "
INDEX 00 15:08:69
INDEX 01 15:10:70
TRACK 05 AUDIO
TITLE "Disco Band"
PERFORMER "Scotch , "
INDEX 00 21:30:36
INDEX 01 21:32:37
TRACK 06 AUDIO
TITLE "Stop Bajon (Primavera)"
PERFORMER "Tullio De Piscopo , "
INDEX 00 26:34:52
INDEX 01 26:36:53
TRACK 07 AUDIO
TITLE "Lady Fantasy"
PERFORMER "Max Him , "
INDEX 00 33:49:02
INDEX 01 33:51:03
TRACK 08 AUDIO
TITLE "Going Back To My Roots (Rich In Paradise)"
PERFORMER "FPI Project , "
INDEX 00 40:04:42
INDEX 01 40:06:37
TRACK 09 AUDIO
TITLE "Dolce Vita"
PERFORMER "Ryan Paris , "
INDEX 00 45:31:59
INDEX 01 45:33:60
TRACK 10 AUDIO
TITLE "Kalimba De Luna"
PERFORMER "Tony Esposito , "
INDEX 00 53:03:39
INDEX 01 53:05:40
TRACK 11 AUDIO
TITLE "Pulstar"
PERFORMER "Hipnosis , "
INDEX 00 58:06:14
INDEX 01 58:08:05
TRACK 12 AUDIO
TITLE "Talking To The Night"
PERFORMER "Brian Ice , "
INDEX 00 63:58:15
INDEX 01 64:00:16

Отчёт auCDtect Task manager:


-----------------------

DON'T MODIFY THIS FILE

-----------------------

PERFORMER: auCDtect Task Manager, ver. 1.6.0 RC1 build 1.6.0.1
Copyright (c) 2008-2010 y-soft. All rights reserved
http://y-soft.org

ANALYZER: auCDtect: CD records authenticity detector, version 0.8.2
Copyright (c) 2004 Oleg Berngardt. All rights reserved.
Copyright (c) 2004 Alexander Djourik. All rights reserved.

FILE: Various Artists - Italo Golden Classics CD2.flac
Size: 441966269 Hash: 673A8399E327DC3593EC54F277A0B8CD Accuracy: -m0
Conclusion: CDDA 100%
Signature: AB64E9B97930F764C03DB4742D57D3C94B00DD5A
YouTube YouTube YouTube YouTube
Детали торрента:
Название:VA - Italo Golden Classics (2 CD) (1996) [FLAC|Lossless|image + .cue] <Italo Disco>
Дата добавления:15 Дек 2017 11:18:08
Размер:876 MB
Раздают:3
Качают:0
Форум:Disco, Italo-Disco, Euro-Disco, Hi-NRG (Lossless)

All rights reserved © 2015-2018