TORRENTS45.XYZ

Скачать Стань легендой! Бигфут Младший / The Son of Bigfoot (2017) BDRip 3D [H.264/1080p] [Вертикальная анаморфная стереопара]


Стань легендой! Бигфут Младший / The Son of Bigfoot (2017) BDRip 3D [H.264/1080p]
Производство: Франция, Бельгия / Belga Productions, Illuminata Pictures, nWave Pictures, Studio Canal, Waterman Entertainment
Жанр: мультфильм, фэнтези, комедия, семейный

Режиссер: Жереми Дегрусон, Бен Стассен
Актеры: Синда Адамс, Боб Барлен, Кэллан Брункер, Джои Камен, Дэвид Эпштейн, Кристофер Л. Парсон, Джо Томас

Описание:
Обычный подросток по имени Адам отправляется на поиски своего давно пропавшего отца и попадает в приключение мифических масштабов. Его мир переворачивается вверх дном, когда оказывается, что в нем течет кровь последних легендарных хранителей леса — бигфутов. Теперь ему открыты такие способности как суперскорость, живительное прикосновение и возможность понимать язык животных.


Возраст: 6+ (зрителям, достигшим 6 лет)
Дата мировой премьеры: 26 июля 2017
Дата российской премьеры: 27 июля 2017, «Вольга»
Дата выхода DVD/Blu-ray релиза: 18 декабря 2017, «НД Плэй»

Релиз от: Torrents45.xyz, RG Всё лучшее - детям!

Продолжительность: 01:32:14
Качество видео: BDRip 3D

Перевод: Дублированный (iTunes)
Субтитры: Отсутствуют

Видео: AVC/H.264, 1920x1080, ~13,0 Мбит/сек
Аудио: AC3, 6 ch, 384

Mediainfo:


Общее
Уникальный идентификатор : 213849976726952741888851698470309299095 (0xA0E201E38E9B7B38875AA61FBA878397)
Полное имя : K:\temp\The_son_of_bigfoot_3D.mkv
Формат : Matroska
Версия формата : Version 2
Размер файла : 8,77 Гбайт
Продолжительность : 1 ч. 32 м.
Общий поток : 13,6 Мбит/сек
Название фильма : The_son_of_bigfoot_3D_Half_O/U
Дата кодирования : UTC 2017-12-15 05:34:00
Программа кодирования : mkvmerge v5.8.0 ('No Sleep / Pillow') built on Sep 2 2012 15:37:04
Библиотека кодирования : libebml v1.2.3 + libmatroska v1.3.0

Видео
Идентификатор : 1
Формат : AVC
Формат/Информация : Advanced Video Codec
Профиль формата : High@L4.1
Параметр CABAC формата : Да
Параметр ReFrames формата : 4 кадра
Идентификатор кодека : V_MPEG4/ISO/AVC
Продолжительность : 1 ч. 32 м.
Битрейт : 13,0 Мбит/сек
Ширина : 1920 пикселей
Высота : 1080 пикселей
Соотношение сторон : 16:9
Режим частоты кадров : Постоянный
Частота кадров : 23,976 (24000/1001) кадра/сек
Цветовое пространство : YUV
Субдискретизация насыщенности : 4:2:0
Битовая глубина : 8 бит
Тип развёртки : Прогрессивная
Бит/(Пиксели*Кадры) : 0.261
Размер потока : 8,35 Гбайт (95%)
Заголовок : rip by I/N
Библиотека кодирования : x264 core 148 r2744 b97ae06
Настройки программы : cabac=1 / ref=4 / deblock=1:-3:-3 / analyse=0x3:0x133 / me=umh / subme=10 / psy=1 / psy_rd=1.00:0.15 / mixed_ref=1 / me_range=64 / chroma_me=1 / trellis=2 / 8x8dct=1 / cqm=0 / deadzone=21,11 / fast_pskip=0 / chroma_qp_offset=-3 / threads=12 / lookahead_threads=3 / sliced_threads=0 / nr=0 / decimate=1 / interlaced=0 / bluray_compat=0 / constrained_intra=0 / bframes=16 / b_pyramid=2 / b_adapt=2 / b_bias=0 / direct=3 / weightb=1 / open_gop=0 / weightp=2 / keyint=250 / keyint_min=23 / scenecut=40 / intra_refresh=0 / rc_lookahead=60 / rc=crf / mbtree=1 / crf=15.0 / qcomp=0.60 / qpmin=0 / qpmax=69 / qpstep=4 / vbv_maxrate=40000 / vbv_bufsize=30000 / crf_max=0.0 / nal_hrd=none / filler=0 / frame-packing=4 / ip_ratio=1.40 / aq=1:1.00
Default : Да
Forced : Нет
Цветовой диапазон : Limited
Основные цвета : BT.709
Характеристики трансфера : BT.709
Коэффициенты матрицы : BT.709

Аудио
Идентификатор : 2
Формат : AC-3
Формат/Информация : Audio Coding 3
Параметр Endianness формата : Big
Идентификатор кодека : A_AC3
Продолжительность : 1 ч. 32 м.
Вид битрейта : Постоянный
Битрейт : 384 Кбит/сек
Каналы : 6 каналов
Расположение каналов : Front: L C R, Side: L R, LFE
Частота : 48,0 КГц
Частота кадров : 31,250 кадров/сек (1536 spf)
Битовая глубина : 16 бит
Метод сжатия : С потерями
Размер потока : 253 Мбайт (3%)
Заголовок : Дубляж (iTunes)
Язык : Russian
ServiceKind/String : Complete Main
Default : Да
Forced : Нет

Меню
00:00:00.000 : en:1 - 0:00:00
00:07:24.192 : en:2 - 0:07:24
00:14:53.767 : en:3 - 0:14:54
00:22:11.788 : en:4 - 0:22:12
00:30:27.490 : en:5 - 0:30:27
00:39:25.612 : en:6 - 0:39:26
00:48:17.268 : en:7 - 0:48:17
00:55:43.672 : en:8 - 0:55:44
01:02:39.130 : en:9 - 1:02:39
01:11:40.212 : en:10 - 1:11:40
01:20:37.082 : en:11 - 1:20:37
01:27:56.520 : en:12 - 1:27:57
01:32:14.319 : en:13 - 1:32:14
Скриншоты:


Все одноименные релизы в Клубе

Смотреть Online

http://37.220.36.15/video/30c8469593791818/iframe
Детали торрента:
Название:Стань легендой! Бигфут Младший / The Son of Bigfoot (2017) BDRip 3D [H.264/1080p] [Вертикальная анаморфная стереопара]
Дата добавления:15 Дек 2017 09:09:37
Размер:8,77 GB
Раздают:6
Качают:0
Форум:Зарубежные Мультфильмы (3D)

All rights reserved © 2015-2018