TORRENTS45.XYZ

Скачать Футбол. Лига Чемпионов УЕФА 2017-2018. Ньон (Швейцария). Жеребьевка 1/8 финала (11.12.2017) HDTVRip [H.264/720p-LQ] [hand made 50fps]


Футбол. Лига Чемпионов УЕФА 2017-2018. Ньон (Швейцария). Жеребьевка 1/8 финала (11.12.2017) HDTVRip [H.264/720p-LQ]
Телекомпания: Матч ТВ HD
Жанр: Телепередача, Спорт

Комментаторы: Александр Шмурнов, Константин Генич; В студии: Дмитрий Жичкин, Нобель Арустамян, Сергей Кривохарченко

Описание: 11 декабря 2017 года, понедельник. 14:00 мск
В Ньоне (Швейцария) состоялась жеребьёвка 1/8 финала Лиги Чемпионов УЕФА 2017-2018. Команды были разбиты на две корзины: победители групп и обладатели вторых мест. Клубы, игравшие в одной группе или представляющие одну национальную ассоциацию, будут разведены по разным парам. Победители групп проведут первые матчи 1/8 финала (13-14 и 20-21 февраля) в гостях, а ответные (6-7 и 13-14 марта) — дома.

Релиз от: CSKAfan

Продолжительность: 00:37:34
Качество видео: HDTVRip
Язык озвучки: Русский, Интершум
Субтитры: отсутствуют

Видео: AVC/H.264, 1280x720 (16:9), ~4201 Kbps, 50 fps
Аудио #1: AC3, 2 ch, 48 kHz, 128 Kbps | Русский
Аудио #2: AC3, 2 ch, 48 kHz, 128 Kbps | Интершум

Mediainfo:


Общее
Уникальный идентификатор : 219852361122139650797877589896504223932 (0xA5660649C1B0EC55B597CA6D172F28BC)
Полное имя : F:\SPORT\Футбол\Лига Чемпионов 2017-2018\(11.12.2017)_UEFA Champions League 2017-2018. Round of 16 draw.mkv
Формат : Matroska
Версия формата : Version 4 / Version 2
Размер файла : 1,17 Гбайт
Продолжительность : 37 м. 34 с.
Общий поток : 4461 Кбит/сек
Дата кодирования : UTC 2017-12-12 05:38:24
Программа кодирования : mkvmerge v18.0.0 ('Apricity') 32-bit
Библиотека кодирования : libebml v1.3.5 + libmatroska v1.4.8

Видео
Идентификатор : 1
Формат : AVC
Формат/Информация : Advanced Video Codec
Профиль формата : High@L3.2
Настройки формата : CABAC / 4 Ref Frames
Параметр CABAC формата : Да
Параметр RefFrames формата : 4 кадра
Идентификатор кодека : V_MPEG4/ISO/AVC
Продолжительность : 37 м. 34 с.
Битрейт : 4201 Кбит/сек
Ширина : 1280 пикселей
Высота : 720 пикселей
Соотношение сторон : 16:9
Режим частоты кадров : Постоянный
Частота кадров : 50,000 кадров/сек
Цветовое пространство : YUV
Субдискретизация насыщенности : 4:2:0
Битовая глубина : 8 бит
Тип развёртки : Прогрессивная
Бит/(Пиксели*Кадры) : 0.091
Размер потока : 1,10 Гбайт (94%)
Default : Да
Forced : Нет

Аудио #1
Идентификатор : 2
Формат : AC-3
Формат/Информация : Audio Coding 3
Параметр Endianness формата : Big
Идентификатор кодека : A_AC3
Продолжительность : 37 м. 34 с.
Вид битрейта : Постоянный
Битрейт : 128 Кбит/сек
Каналы : 2 канала
Расположение каналов : Front: L R
Частота : 48,0 КГц
Частота кадров : 31,250 кадров/сек (1536 SPF)
Битовая глубина : 16 бит
Метод сжатия : С потерями
Размер потока : 34,4 Мбайт (3%)
Язык : Russian
ServiceKind/String : Complete Main
Default : Да
Forced : Нет

Аудио #2
Идентификатор : 3
Формат : AC-3
Формат/Информация : Audio Coding 3
Идентификатор кодека : A_AC3
Продолжительность : 37 м. 34 с.
Битрейт : 128 Кбит/сек
Каналы : 2 канала
Частота : 48,0 КГц
Частота кадров : 31,250 кадров/сек (1536 SPF)
Метод сжатия : С потерями
Размер потока : 34,4 Мбайт (3%)
Язык : Несколько языков
Default : Нет
Forced : Нет
Скриншоты:


Все одноименные релизы в Клубе
Детали торрента:
Название:Футбол. Лига Чемпионов УЕФА 2017-2018. Ньон (Швейцария). Жеребьевка 1/8 финала (11.12.2017) HDTVRip [H.264/720p-LQ] [hand made 50fps]
Дата добавления:12 Дек 2017 11:12:32
Размер:1,17 GB
Раздают:
Качают:0
Форум:Архив Документалистики и TV

All rights reserved © 2015-2019