TORRENTS45.XYZ

Скачать Груз / Cargo (2013) WEB-DLRip [H.264/720p]


Груз / Cargo (2013) WEB-DLRip
Производство: Австралия
Жанр: Короткометражный, Ужасы, Драма

Режиссер: Бен Хоулинг, Иоланда Рамке
Актеры: Энди Родореда, Рут Венн, Элисон Галлахер, Иоланда Рамке, Каллан Ричардс

Описание:
Во время зомби-апокалипсиса перед отцом стоит цель — спасти ценный груз, свою маленькую дочь.


Возраст: этот продукт не был классифицирован
Рейтинг MPAA: этот продукт не был классифицирован
Дата мировой премьеры: 17 февраля 2013

Продолжительность: 00:07:04
Качество видео: WEB-DLRip
Перевод: Отсутствует
Язык: Английский
Автор перевода: Перевод не требуется
Субтитры: нет

Видео: AVC/H.264, 1280х720, ~1282 Kbps
Аудио: AAC, 2 ch, 125 Kbps

Mediainfo:


Общее
Полное имя : C:\Users\111\Desktop\Cargo.mp4
Формат : MPEG-4
Профиль формата : Base Media
Идентификатор кодека : isom (isom/iso2/avc1/mp41)
Размер файла : 71,5 Мбайт
Продолжительность : 7 м. 4 с.
Общий поток : 1414 Кбит/сек
Программа кодирования : Lavf54.63.104

Видео
Идентификатор : 1
Формат : AVC
Формат/Информация : Advanced Video Codec
Профиль формата : Main@L3.1
Настройки формата : CABAC / 3 Ref Frames
Параметр CABAC формата : Да
Параметр RefFrames формата : 3 кадра
Идентификатор кодека : avc1
Идентификатор кодека/Информация : Advanced Video Coding
Продолжительность : 7 м. 3 с.
Битрейт : 1283 Кбит/сек
Ширина : 1280 пикселей
Высота : 720 пикселей
Соотношение сторон : 16:9
Режим частоты кадров : Переменный
Частота кадров : 25,000 кадров/сек
Минимальная частота кадров : 25,000 кадров/сек
Максимальная частота кадров : 1000,000 кадров/сек
Цветовое пространство : YUV
Субдискретизация насыщенности : 4:2:0
Битовая глубина : 8 бит
Тип развёртки : Прогрессивная
Бит/(Пиксели*Кадры) : 0.056
Размер потока : 64,8 Мбайт (91%)

Аудио
Идентификатор : 2
Формат : AAC
Формат/Информация : Advanced Audio Codec
Профиль формата : LC
Идентификатор кодека : mp4a-40-2
Продолжительность : 7 м. 4 с.
Вид битрейта : Постоянный
Битрейт : 126 Кбит/сек
Каналы : 2 канала
Расположение каналов : Front: L R
Частота : 44,1 КГц
Частота кадров : 43,066 кадра/сек (1024 SPF)
Метод сжатия : С потерями
Размер потока : 6,35 Мбайт (9%)
Default : Да
AlternateGroup/String : 1
Скриншоты:

Все одноименные релизы в Клубе

Смотреть Online

http://moonwalk.cc/video/8a836c60d9cbe9c2/iframe
Детали торрента:
Название:Груз / Cargo (2013) WEB-DLRip [H.264/720p]
Дата добавления:11 Дек 2017 15:22:47
Размер:71,5 MB
Раздают:
Качают:0
Форум:Авторское кино

All rights reserved © 2015-2018