TORRENTS45.XYZ

Скачать Цирк мертвецов / Circus of the Dead (2014) HDRip [VO]


Цирк мертвецов / Circus of the Dead (2014) HDRip
Производство: США / Bell Cow Films, Bloody Bill Productions
Жанр: Триллер, Ужасы, Боевик

Режиссер: Billy «Bloody Bill» Pon
Актеры: Билл Оберст мл., Пэрриш Рэндолл, Шанель Райан, Роджер Эдвардс, Брэд Поттс, Тиффани Фест, Райан Клэпп

Описание:
Молодой отец и примерный семьянин становится участником ужасных событий, когда в его городок приезжает цирк. Кровожадные клоуны заставляют его совершенно по-новому взглянуть на спокойную и тихую жизнь, которую он вёл до недавнего времени.



Продолжительность: 01:45:10
Качество видео: HDRip
Перевод: Одноголосый закадровый, любительский (Хихидок)
Субтитры: Отсутствуют

Видео: Xvid, 720x304, ~1780 Kbps
Аудио: AC3, 2 ch, 192 Kbps

Mediainfo:


Общее
Полное имя : J:\Cirk.Mertvetsov.avi
Формат : AVI
Формат/Информация : Audio Video Interleave
Размер файла : 1,46 Гбайт
Продолжительность : 1 ч. 45 м.
Общий поток : 1981 Кбит/сек
Программа кодирования : VirtualDubMod 1.5.10.2 (build 2542/release)
Библиотека кодирования : VirtualDubMod build 2542/release
Примечание : Rip by Basma4i

Видео
Идентификатор : 0
Формат : MPEG-4 Visual
Профиль формата : Advanced Simple@L5
Параметр BVOP формата : Нет
Параметр QPel формата : Нет
Параметр GMC формата : Без точки перехода
Параметр матрицы формата : Default (H.263)
Идентификатор кодека : XVID
Идентификатор кодека/Подсказка : XviD
Продолжительность : 1 ч. 45 м.
Битрейт : 1780 Кбит/сек
Ширина : 720 пикселей
Высота : 304 пикселя
Соотношение сторон : 2,40:1
Частота кадров : 23,976 (24000/1001) кадра/сек
Цветовое пространство : YUV
Субдискретизация насыщенности : 4:2:0
Битовая глубина : 8 бит
Тип развёртки : Прогрессивная
Метод сжатия : С потерями
Бит/(Пиксели*Кадры) : 0.339
Размер потока : 1,31 Гбайт (90%)
Библиотека кодирования : XviD 67

Аудио
Идентификатор : 1
Формат : AC-3
Формат/Информация : Audio Coding 3
Параметр Endianness формата : Big
Идентификатор кодека : 2000
Продолжительность : 1 ч. 45 м.
Вид битрейта : Постоянный
Битрейт : 192 Кбит/сек
Каналы : 2 канала
Расположение каналов : Front: L R
Частота : 48,0 КГц
Частота кадров : 31,250 кадров/сек (1536 SPF)
Битовая глубина : 16 бит
Метод сжатия : С потерями
Размер потока : 144 Мбайт (10%)
Выравнивание : Разделение по промежуткам
Продолжительность промежутка : 42 мс. (1,00 видеокадр)
Время предзагрузки промежутка : 500 мс.
ServiceKind/String : Complete Main
Скриншоты:


Все одноименные релизы в Клубе
Детали торрента:
Название:Цирк мертвецов / Circus of the Dead (2014) HDRip [VO]
Дата добавления:10 Дек 2017 19:24:21
Размер:1,46 GB
Раздают:
Качают:0
Форум:Зарубежные Фильмы (HD*Rip/LQ, DVDRip, SATRip, VHSRip)

All rights reserved © 2015-2018