TORRENTS45.XYZ

Скачать Jag Panzer - The Deviant Chord (2017) [FLAC|Lossless|image + .cue] <Power Metal>


Jag Panzer - The Deviant Chord (2017)
Жанр: Power Metal
Издание: Steamhammer/SPV GmbH - SPV 270772 CD
Продолжительность: 00:44:44

Кодек: FLAC
Битрейт: Lossless
Тип рипа: image + .cue

Треклист:
01. Born of the Flame
02. Far Beyond All Fear
03. The Deviant Chord
04. Blacklist
05. Foggy Dew
06. Divine Intervention
07. Long Awaited Kiss
08. Salacious Behaviour
09. Fire of Our Spirit
10. Dare

Отчёт EAC:


Exact Audio Copy V1.3 from 2. September 2016

EAC extraction logfile from 28. September 2017, 11:50

Jag Panzer / The Deviant Chord

Used drive : ATAPI iHAS122 W Adapter: 2 ID: 0

Read mode : Secure
Utilize accurate stream : Yes
Defeat audio cache : Yes
Make use of C2 pointers : No

Read offset correction : 48
Overread into Lead-In and Lead-Out : No
Fill up missing offset samples with silence : Yes
Delete leading and trailing silent blocks : No
Null samples used in CRC calculations : Yes
Used interface : Installed external ASPI interface

Used output format : User Defined Encoder
Selected bitrate : 1024 kBit/s
Quality : High
Add ID3 tag : No
Command line compressor : C:\Program Files\FLAC\flac.exe
Additional command line options : -V -8 -T "Date=%year%" -T "Genre=%genre%" -T"COMMENT=Ripped by Ilijan - ilko" -8 -V %source%

TOC of the extracted CD

Track | Start | Length | Start sector | End sector
---------------------------------------------------------
1 | 0:00.00 | 4:00.29 | 0 | 18028
2 | 4:00.29 | 3:50.73 | 18029 | 35351
3 | 7:51.27 | 5:32.38 | 35352 | 60289
4 | 13:23.65 | 4:18.35 | 60290 | 79674
5 | 17:42.25 | 3:20.31 | 79675 | 94705
6 | 21:02.56 | 3:25.33 | 94706 | 110113
7 | 24:28.14 | 6:14.44 | 110114 | 138207
8 | 30:42.58 | 4:07.47 | 138208 | 156779
9 | 34:50.30 | 4:37.05 | 156780 | 177559
10 | 39:27.35 | 5:17.39 | 177560 | 201373

Range status and errors

Selected range

Filename D:\ilko\Jag Panzer - The Deviant Chord.wav

Peak level 100.0 %
Extraction speed 3.8 X
Range quality 100.0 %
Test CRC 591F0D56
Copy CRC 591F0D56
Copy OK

No errors occurred

AccurateRip summary

Track 1 not present in database
Track 2 not present in database
Track 3 not present in database
Track 4 not present in database
Track 5 not present in database
Track 6 not present in database
Track 7 not present in database
Track 8 not present in database
Track 9 not present in database
Track 10 not present in database

None of the tracks are present in the AccurateRip database

End of status report

---- CUETools DB Plugin V2.1.6

[CTDB TOCID: cCq2lVP8jFAtYQ5e5dBqxL1MXKg-] disk not present in database
Submit result: cCq2lVP8jFAtYQ5e5dBqxL1MXKg- has been uploaded

==== Log checksum 5F278260601989B17F7305B9DBCCA37D0381530B817D4FA673E130C808D77CB9 ====

Cue Sheet (.cue):


REM GENRE "Power Metal"
REM DATE 2017
REM DISCID 7B0A7C0A
REM COMMENT "ExactAudioCopy v1.3"
PERFORMER "Jag Panzer"
TITLE "The Deviant Chord"
FILE "Jag Panzer - The Deviant Chord.flac" WAVE
TRACK 01 AUDIO
TITLE "Born of the Flame"
PERFORMER "Jag Panzer"
INDEX 01 00:00:00
TRACK 02 AUDIO
TITLE "Far Beyond All Fear"
PERFORMER "Jag Panzer"
INDEX 00 04:00:13
INDEX 01 04:00:29
TRACK 03 AUDIO
TITLE "The Deviant Chord "
PERFORMER "Jag Panzer"
INDEX 00 07:49:28
INDEX 01 07:51:27
TRACK 04 AUDIO
TITLE "Blacklist"
PERFORMER "Jag Panzer"
INDEX 01 13:23:65
TRACK 05 AUDIO
TITLE "Foggy Dew"
PERFORMER "Jag Panzer"
INDEX 00 17:42:07
INDEX 01 17:42:25
TRACK 06 AUDIO
TITLE "Divine Intervention"
PERFORMER "Jag Panzer"
INDEX 00 21:02:42
INDEX 01 21:02:56
TRACK 07 AUDIO
TITLE "Long Awaited Kiss"
PERFORMER "Jag Panzer"
INDEX 01 24:28:14
TRACK 08 AUDIO
TITLE "Salacious Behaviour"
PERFORMER "Jag Panzer"
INDEX 01 30:42:58
TRACK 09 AUDIO
TITLE "Fire of Our Spirit"
PERFORMER "Jag Panzer"
INDEX 00 34:50:22
INDEX 01 34:50:30
TRACK 10 AUDIO
TITLE "Dare"
PERFORMER "Jag Panzer"
INDEX 01 39:27:35

Отчёт AUDIOCHECKER:


AUDIOCHECKER v2.0 beta (build 457) - by Dester - opdester@freemail.hu
~~~~~~~~~~~~~~~~~~~~~~~~~~~~~~~~~~
-=== DO NOT EDIT THIS FILE! ===-

Path: ...\JAG PANZER [2017] [CD] The Deviant Chord (Ltd. Ed.) [EAC-FLAC]

1 -=- Jag Panzer - The Deviant Chord.flac -=- CDDA (100%)

165221204
Детали торрента:
Название:Jag Panzer - The Deviant Chord (2017) [FLAC|Lossless|image + .cue] <Power Metal>
Дата добавления:02 Дек 2017 15:59:18
Размер:346 MB
Раздают:
Качают:0
Форум:Metal (Lossless)

All rights reserved © 2015-2018