TORRENTS45.XYZ

Скачать Валериан и город тысячи планет / Valerian and the City of a Thousand Planets (2017) BDRip [480p] iPod


Валериан и город тысячи планет / Valerian and the City of a Thousand Planets (2017) BDRip [480p] iPod
«From the visionary director of The Fifth Element and Lucy»

Год выпуска: 2017
Производство: Франция, Китай, Германия, ОАЭ, США
Жанр: Фантастика, фэнтези, боевик, приключения
Продолжительность: 02:17:03

Перевод: Дублированный (iTunes)
Субтитры: Русские форсированные, Английские форсированные, Русские, Английские
Режиссер: Люк Бессон
Актеры: Дэйн ДеХаан, Кара Делевинь, Клайв Оуэн, Рианна, Итан Хоук, Херби Хэнкок, Крис У, Сэм Спруэлл, Ален Шаба, Рутгер Хауэр

Мировая премьера: 17 июля 2017



Описание: 2700 год. Валериан и Лорелин — космические спецагенты, которые по долгу службы впутались в подозрительное дело и стали невольными участниками то ли межгалактического заговора, то ли аферы причудливых поселенцев планеты Альфа, прибывших туда из различных миров со всех уголков галактик.
Качество: BDRip 480p
Контейнер: M4V
Видео: H.264, 640x356 анаморф 852х356, 2.40:1, 1 300 Kbps, 23.976 (24000/1001) fps

Аудио 1: Русский/Дублированный (iTunes), AAC / 2.0 / 128 Kbps / 48.0 KHz
Аудио 2: Английский/Оригинальная дорожка , AAC / 2.0 / 128 Kbps / 48.0 KHz

iTunes Meta Tags

Код: выделить все

Sort Name: Valerian and the City of a Thousand Planets
XID: Apple:vendor_id:2017-689960
contentID: 1254728550
Copyright: © 2017 Valerian SAS – TF1 Films Production
Screenwriters: Люк Бессон, Пьер Кристин, Жан-Клод Мезьер
Producers: Люк Бессон, Виржини Силла
Director: Люк Бессон
Cast: Дэйн ДеХаан, Кара Делевинь, Клайв Оуэн, Рианна Итан, Хоук Херби, Хэнкок Крис, У Сэм Спруэлл, Ален Шаба, Рутгер Хауэр
Studio: EuropaCorp
Rating: 4
Long Description: 2700 год. Валериан и Лорелин - космические спецагенты, которые по долгу службы впутались в подозрительное дело и стали невольными участниками то ли межгалактического заговора, то ли аферы причудливых поселенцев планеты Альфа, прибывших туда из различных миров со всех уголков галактик.
Description: 2700 год. Валериан и Лорелин - космические спецагенты, которые по долгу службы впутались в подозрительное дело и стали невольными участниками то ли межгалактического заговора, то ли аферы причудливых поселенцев планеты Альфа, прибывших туда из различных миров со всех уголков галактик.
Release Date: 2017-07-17T08:00:00Z
Genre: Sci-Fi & Fantasy
Artist: Luc Besson
Name: Valerian and the City of a Thousand Planets

MediaInfo

Код: выделить все

General
Complete name                            : /Users/imac/HandBrake/Valerian.and.the.City.of.a.Thousand.Planets.(480p).(pk).m4v
Format                                   : MPEG-4
Codec ID                                 : M4V  (M4V /M4A /mp42/isom)
File size                                : 1.49 GiB
Duration                                 : 2h 17mn
Overall bit rate mode                    : Variable
Overall bit rate                         : 1 559 Kbps
Movie name                               : Valerian and the City of a Thousand Planets
Performer                                : Luc Besson
Director                                 : Люк Бессон
Actor                                    : Дэйн ДеХаан / Кара Делевинь / Клайв Оуэн / Рианна Итан / Хоук Херби / Хэнкок Крис / У Сэм Спруэлл / Ален Шаба / Рутгер Хауэр
Screenplay by                            : Люк Бессон / Пьер Кристин / Жан-Клод Мезьер
Producer                                 : Люк Бессон / Виржини Силла
Production studio                        : EuropaCorp
Genre                                    : Sci-Fi & Fantasy
ContentType                              : Short Film
Description                              : 2700 год. Валериан и Лорелин - космические спецагенты, которые по долгу службы впутались в подозрительное дело и стали невольными участниками то ли межгалактического заговора, то ли аферы причудливых поселенцев планеты Альфа, прибывших туда из различных миров со всех уголков галактик.
Recorded date                            : UTC 2017-07-17 08:00:00
Encoded date                             : UTC 2017-11-29 13:34:13
Tagged date                              : UTC 2017-11-29 13:35:51
Copyright                                : © 2017 Valerian SAS – TF1 Films Production
Cover                                    : Yes
Rating                                   : None
Title/Sort                               : Valerian and the City of a Thousand Planets
LongDescription                          : 2700 год. Валериан и Лорелин - космические спецагенты, которые по долгу службы впутались в подозрительное дело и стали невольными участниками то ли межгалактического заговора, то ли аферы причудливых поселенцев планеты Альфа, прибывших туда из различных миров со всех уголков галактик.
AppleStoreCatalogID                      : 1254728550
Vendor                                   : Apple:vendor_id:2017-689960
ContentRating                            : mpaa|PG-13|300|

Video #1
ID                                       : 1
Format                                   : AVC
Format/Info                              : Advanced Video Codec
Format profile                           : Baseline@L3
Format settings                          : 2 Ref Frames
Format settings, CABAC                   : No
Format settings, ReFrames                : 2 frames
Codec ID                                 : avc1
Codec ID/Info                            : Advanced Video Coding
Duration                                 : 2h 17mn
Bit rate                                 : 1 300 Kbps
Width                                    : 640 pixels
Height                                   : 356 pixels
Display aspect ratio                     : 2.40:1
Frame rate mode                          : Variable
Frame rate                               : 23.976 (24000/1001) fps
Minimum frame rate                       : 23.974 fps
Maximum frame rate                       : 23.981 fps
Color space                              : YUV
Chroma subsampling                       : 4:2:0
Bit depth                                : 8 bits
Scan type                                : Progressive
Bits/(Pixel*Frame)                       : 0.238
Stream size                              : 1.24 GiB (83%)
Title                                    : Main Program
Writing library                          : x264 core 148 r2708 86b7198
Encoding settings                        : cabac=0 / ref=2 / deblock=1:0:0 / analyse=0x1:0x111 / me=umh / subme=6 / psy=1 / psy_rd=1.00:0.00 / mixed_ref=1 / me_range=16 / chroma_me=1 / trellis=0 / 8x8dct=0 / cqm=0 / deadzone=21,11 / fast_pskip=1 / chroma_qp_offset=-2 / threads=11 / lookahead_threads=1 / sliced_threads=0 / nr=0 / decimate=1 / interlaced=0 / bluray_compat=0 / constrained_intra=0 / bframes=0 / weightp=0 / keyint=240 / keyint_min=24 / scenecut=40 / intra_refresh=0 / rc_lookahead=40 / rc=2pass / mbtree=1 / bitrate=1300 / ratetol=1.0 / qcomp=0.60 / qpmin=0 / qpmax=69 / qpstep=4 / cplxblur=20.0 / qblur=0.5 / vbv_maxrate=5000 / vbv_bufsize=5000 / nal_hrd=none / filler=0 / ip_ratio=1.40 / aq=1:1.00
Language                                 : English
Encoded date                             : UTC 2017-11-29 13:34:13
Tagged date                              : UTC 2017-11-29 13:34:18
Color range                              : Limited
Color primaries                          : BT.709
Transfer characteristics                 : BT.709
Matrix coefficients                      : BT.709
Menus                                    : 8,9

Video #2
ID                                       : 9
Format                                   : JPEG
Codec ID                                 : jpeg
Duration                                 : 2h 17mn
Bit rate mode                            : Variable
Bit rate                                 : 498 bps
Width                                    : 640 pixels
Height                                   : 267 pixels
Display aspect ratio                     : 2.40:1
Frame rate mode                          : Variable
Frame rate                               : 0.002 fps
Minimum frame rate                       : 0.001 fps
Maximum frame rate                       : 0.003 fps
Color space                              : YUV
Chroma subsampling                       : 4:2:0
Bit depth                                : 8 bits
Compression mode                         : Lossy
Bits/(Pixel*Frame)                       : 1.457
Stream size                              : 486 KiB (0%)
Title                                    : Chapter Images
Language                                 : English
Default                                  : No
Encoded date                             : UTC 2017-11-29 13:34:48
Tagged date                              : UTC 2017-11-29 13:34:48
Menu For                                 : 1

Audio #1
ID                                       : 2
Format                                   : AAC
Format/Info                              : Advanced Audio Codec
Format profile                           : LC
Codec ID                                 : mp4a-40-2
Duration                                 : 2h 17mn
Source duration                          : 2h 17mn
Bit rate mode                            : Variable
Bit rate                                 : 125 Kbps
Maximum bit rate                         : 205 Kbps
Channel(s)                               : 2 channels
Channel positions                        : Front: L R
Sampling rate                            : 48.0 KHz
Frame rate                               : 46.875 fps (1024 SPF)
Compression mode                         : Lossy
Stream size                              : 123 MiB (8%)
Source stream size                       : 123 MiB (8%)
Title                                    : Russian Stereo
Language                                 : Russian
Default                                  : Yes
Alternate group                          : 1
Encoded date                             : UTC 2017-11-29 13:34:13
Tagged date                              : UTC 2017-11-29 13:34:45
Subtitles                                : 4,6

Audio #2
ID                                       : 3
Format                                   : AAC
Format/Info                              : Advanced Audio Codec
Format profile                           : LC
Codec ID                                 : mp4a-40-2
Duration                                 : 2h 17mn
Source duration                          : 2h 17mn
Bit rate mode                            : Variable
Bit rate                                 : 126 Kbps
Maximum bit rate                         : 208 Kbps
Channel(s)                               : 2 channels
Channel positions                        : Front: L R
Sampling rate                            : 48.0 KHz
Frame rate                               : 46.875 fps (1024 SPF)
Compression mode                         : Lossy
Stream size                              : 123 MiB (8%)
Source stream size                       : 123 MiB (8%)
Title                                    : English Stereo
Language                                 : English
Default                                  : No
Alternate group                          : 1
Encoded date                             : UTC 2017-11-29 13:34:13
Tagged date                              : UTC 2017-11-29 13:34:45
Subtitles                                : 5,7

Text #1
ID                                       : 4
Format                                   : Timed Text
Muxing mode                              : sbtl
Codec ID                                 : tx3g
Duration                                 : 1h 18mn
Bit rate mode                            : Variable
Bit rate                                 : 1 bps
Stream size                              : 597 Bytes (0%)
Title                                    : Russian forced
Language                                 : Russian
Default                                  : Yes
Forced                                   : Yes
Alternate group                          : 2
Encoded date                             : UTC 2017-11-29 13:34:13
Tagged date                              : UTC 2017-11-29 13:34:33
Subtitles For                            : 2
Full Alternative                         : 6

Text #2
ID                                       : 5
Format                                   : Timed Text
Muxing mode                              : sbtl
Codec ID                                 : tx3g
Duration                                 : 11mn 1s
Bit rate mode                            : Variable
Bit rate                                 : 2 bps
Stream size                              : 130 Bytes (0%)
Title                                    : English forced
Language                                 : English
Default                                  : No
Forced                                   : Yes
Alternate group                          : 2
Encoded date                             : UTC 2017-11-29 13:34:13
Tagged date                              : UTC 2017-11-29 13:34:18
Subtitles For                            : 3
Full Alternative                         : 7

Text #3
ID                                       : 6
Format                                   : Timed Text
Muxing mode                              : sbtl
Codec ID                                 : tx3g
Duration                                 : 2h 10mn
Bit rate mode                            : Variable
Bit rate                                 : 91 bps
Stream size                              : 86.9 KiB (0%)
Title                                    : Russian full
Language                                 : Russian
Default                                  : No
Forced                                   : No
Alternate group                          : 2
Encoded date                             : UTC 2017-11-29 13:34:13
Tagged date                              : UTC 2017-11-29 13:34:44
Subtitles For                            : 2
Forced Alternative                       : 4

Text #4
ID                                       : 7
Format                                   : Timed Text
Muxing mode                              : sbtl
Codec ID                                 : tx3g
Duration                                 : 2h 9mn
Bit rate mode                            : Variable
Bit rate                                 : 60 bps
Stream size                              : 56.8 KiB (0%)
Title                                    : English full
Language                                 : English
Default                                  : No
Forced                                   : No
Alternate group                          : 2
Encoded date                             : UTC 2017-11-29 13:34:13
Tagged date                              : UTC 2017-11-29 13:34:44
Subtitles For                            : 3
Forced Alternative                       : 5

Menu #1
00:00:00.000                             : 00:00:00.000
00:12:35.713                             : 00:12:35.713
00:17:29.590                             : 00:17:29.590
00:23:35.789                             : 00:23:35.789
00:32:45.839                             : 00:32:45.839
00:41:19.143                             : 00:41:19.143
00:47:15.666                             : 00:47:15.666
00:56:12.411                             : 00:56:12.411
01:04:25.695                             : 01:04:25.695
01:11:27.909                             : 01:11:27.908
01:20:25.070                             : 01:20:25.070
01:28:13.705                             : 01:28:13.705
01:35:53.915                             : 01:35:53.915
01:41:35.047                             : 01:41:35.047
01:53:37.978                             : 01:53:37.853
02:02:22.585                             : 02:02:22.585

Menu #2
ID                                       : 8
Codec ID                                 : text
Duration                                 : 2h 17mn
Language                                 : English
Encoded date                             : UTC 2017-11-29 13:34:45
Tagged date                              : UTC 2017-11-29 13:34:45
Bit rate mode                            : CBR
Menu For                                 : 1
00:00:00.000                             : 00:00:00.000
00:12:35.713                             : 00:12:35.713
00:17:29.590                             : 00:17:29.590
00:23:35.789                             : 00:23:35.789
00:32:45.839                             : 00:32:45.839
00:41:19.143                             : 00:41:19.143
00:47:15.666                             : 00:47:15.666
00:56:12.411                             : 00:56:12.411
01:04:25.695                             : 01:04:25.695
01:11:27.909                             : 01:11:27.908
01:20:25.070                             : 01:20:25.070
01:28:13.705                             : 01:28:13.705
01:35:53.915                             : 01:35:53.915
01:41:35.047                             : 01:41:35.047
01:53:37.978                             : 01:53:37.853
02:02:22.585                             : 02:02:22.585

x264 лог

Код: выделить все

x264 [info]: frame I:3831  Avg QP:17.44  size: 27951
x264 [info]: frame P:193330 Avg QP:19.99  size:  6358
x264 [info]: mb I  I16..4: 19.7%  0.0% 80.3%
x264 [info]: mb P  I16..4:  1.3%  0.0%  3.7%  P16..4: 44.3% 19.6%  8.3%  0.0%  0.0%    skip:22.8%
x264 [info]: coded y,uvDC,uvAC intra: 65.4% 80.7% 58.0% inter: 23.2% 26.3% 8.2%
x264 [info]: i16 v,h,dc,p: 41% 16%  9% 34%
x264 [info]: i4 v,h,dc,ddl,ddr,vr,hd,vl,hu: 34% 14% 13%  6%  7%  8%  6%  7%  5%
x264 [info]: i8c dc,h,v,p: 47% 16% 27% 10%
x264 [info]: ref P L0: 73.3% 26.7%
x264 [info]: kb/s:1300.02

Скриншоты:







Релиз подготовлен для просмотра на Apple TV, iPad, iPhone, iPod Touch.
Для просмотра данного релиза на компьютере с ОС Windows рекомендуется использовать VLC media player

Смотреть Online

Детали торрента:
Название:Валериан и город тысячи планет / Valerian and the City of a Thousand Planets (2017) BDRip [480p] iPod
Дата добавления:29 Ноя 2017 16:50:34
Размер:1,49 GB
Раздают:5
Качают:0
Форум:Зарубежное видео для устройств Apple

All rights reserved © 2015-2019