TORRENTS45.XYZ

Скачать КВН-2017. Первая лига. 1.2 финала. Игра 1 (2017.11.03) WEB-DL [H.264/1080p-LQ]


КВН-2017. Первая лига. 1.2 финала. Игра 1 (2017.11.03) WEB-DL [H.264/1080p-LQ]
Жанр: Юмор
Ведущий: Айдар Гараев

Описание:
Что такое КВН, знают, без сомнения, все. В КВН играют во всем мире, это прежде всего молодежная игра. Постоянные конкурсные задания: "Визитная карточка", "Разминка", "Конкурс капитанов", "Музыкальный конкурс", "Домашнее задание". Игру команд оценивает профессиональное жюри — люди, у которых с чувством юмора все в порядке, многие из них раньше сами играли в КВН. Среди членов жюри были Константин Эрнст, Леонид Парфенов, Юлий Гусман, Леонид Ярмольник, Валдис Пельш, Сергей Шолохов, Геннадий Хазанов и другие. Кроме самих игр проводятся ежегодные встречи: фестиваль команд КВН (с 1990 г., семь раз фестиваль проходил в г.Сочи), музыкальный фестиваль КВН, летний кубок КВН, международные товарищеские игры в КВН. Сборная КВН играет со сборными других стран. Уже состоялись игры между сборной КВН и сборными Америки, Австралии, Израиля... Игра в КВН для многих становится профессией, а многие благодаря игре связывают жизнь с искусством. Из КВН "вышли": Леонид Якубович, Михаил Марфин, Татьяна Лазарева, Олег Филимонов, Юлий Гусман и многие другие.

Релиз от: svlesin
Продолжительность: 01:42:40
Качество видео: WEB-DL
Субтитры: Отсутствуют

Видео: AVC, 1920x1080 (16:9), 25.000 fps, 3 110 Kbps (0.060 bit/pixel)
Аудио: AC-3, 44.1 KHz, 2 ch, 192 Kbps, CBR

Mediainfo:

Код: выделить все
 Общее
Уникальный идентификатор                 : 182071948608304271589380373858210332183 (0x88F9C8231CAC808696F2F34238ECBE17)
Полное имя                               : D:\[1]\КВН\КВН-2017. Первая лига. 1.2 финала. Игра 1 (2017.11.03)_1080.mkv
Формат                                   : Matroska
Версия формата                           : Version 4 / Version 2
Размер файла                             : 2,42 Гбайт
Продолжительность                        : 1 ч. 42 м.
Общий поток                              : 3369 Кбит/сек
Название фильма                          : КВН-2017. Первая лига. 1.2 финала. Игра 1 (2017.11.03)_1080_torrents45.xyz
Дата кодирования                         : UTC 2017-11-04 12:36:45
Программа кодирования                    : mkvmerge v17.0.0 ('Be Ur Friend') 64-bit
Библиотека кодирования                   : libebml v1.3.5 + libmatroska v1.4.8
Attachements                             : torrents45.xyz.png
DURATION                                 : 01:42:40.161000000
NUMBER_OF_FRAMES                         : 176864
NUMBER_OF_BYTES                          : 147843866
_STATISTICS_WRITING_APP                  : mkvmerge v17.0.0 ('Be Ur Friend') 64-bit
_STATISTICS_WRITING_DATE_UTC             : 2017-11-04 12:36:45
_STATISTICS_TAGS                         : BPS DURATION NUMBER_OF_FRAMES NUMBER_OF_BYTES

Видео
Идентификатор                            : 1
Формат                                   : AVC
Формат/Информация                        : Advanced Video Codec
Профиль формата                          : High@L4
Параметр CABAC формата                   : Да
Параметр ReFrames формата                : 2 кадра
Идентификатор кодека                     : V_MPEG4/ISO/AVC
Продолжительность                        : 1 ч. 42 м.
Битрейт                                  : 3110 Кбит/сек
Ширина                                   : 1920 пикселей
Высота                                   : 1080 пикселей
Соотношение сторон                       : 16:9
Режим частоты кадров                     : Постоянный
Частота кадров                           : 25,000 кадров/сек
Цветовое пространство                    : YUV
Субдискретизация насыщенности            : 4:2:0
Битовая глубина                          : 8 бит
Тип развёртки                            : Прогрессивная
Бит/(Пиксели*Кадры)                      : 0.060
Размер потока                            : 2,23 Гбайт (92%)
Default                                  : Да
Forced                                   : Нет
Цветовой диапазон                        : Limited
Основные цвета                           : BT.709
Характеристики трансфера                 : BT.709
Коэффициенты матрицы                     : BT.709

Аудио
Идентификатор                            : 2
Формат                                   : AC-3
Формат/Информация                        : Audio Coding 3
Расширение режима                        : CM (complete main)
Параметр Endianness формата              : Big
Идентификатор кодека                     : A_AC3
Продолжительность                        : 1 ч. 42 м.
Вид битрейта                             : Постоянный
Битрейт                                  : 192 Кбит/сек
Каналы                                   : 2 канала
Расположение каналов                     : Front: L R
Частота                                  : 44,1 КГц
Битовая глубина                          : 16 бит
Метод сжатия                             : С потерями
Размер потока                            : 141 Мбайт (6%)
Default                                  : Да
Forced                                   : Нет
 
Скриншоты:



Все одноименные релизы в Клубе
Детали торрента:
Название:КВН-2017. Первая лига. 1.2 финала. Игра 1 (2017.11.03) WEB-DL [H.264/1080p-LQ]
Дата добавления:04 Ноя 2017 15:43:22
Размер:2,42 GB
Раздают:1
Качают:0
Форум:КВН

All rights reserved © 2015-2018