TORRENTS45.XYZ

Скачать Masayoshi Takanaka - Ukulele Seychelles (2011) Lagoon Records [FLAC|Lossless|tracks + .cue] <Jazz Fusion>


Masayoshi Takanaka - Ukulele Seychelles (2011) Lagoon Records
Жанр: Jazz Fusion
Издание: Lagoon Records - LAG 0013
Продолжительность: 01:00:10

Кодек: FLAC (tracks+.cue)
Битрейт: Lossless
Источник (релизер): sunshinefeltlikerain
Страна-производитель диска: Japan
Наличие сканов в содержимом раздачи: нет

Треклист:

01. Oh! Tengo Suerte [04:44]
02. Tokyo Legie [03:58]
03. Shinkirou no Shima E [04:28]
04. Akogare no Seychelles Shotou [05:33]
05. Funkee Mah-Chan [04:34]
06. Sayonara... Fuji-san [04:36]
07. Bird Island Kyuukou [03:45]
08. Tropic Birds [08:29]
09. Ukulele Encore [05:56]
10. Tokyo Legie (karaoke) [04:00]
11. Akogare no Seychelles Shotou (karaoke) [05:33]
12. Sayonara... Fuji-san (karaoke) [04:39]

Отчёт EAC:


Exact Audio Copy V1.1 from 23. June 2015

EAC extraction logfile from 6. October 2016, 0:45

Masayoshi Takanaka / Ukulele Seychelles

Used drive : ATAPI iHAS124 C Adapter: 1 ID: 0

Read mode : Secure
Utilize accurate stream : Yes
Defeat audio cache : Yes
Make use of C2 pointers : No

Read offset correction : 6
Overread into Lead-In and Lead-Out : No
Fill up missing offset samples with silence : Yes
Delete leading and trailing silent blocks : No
Null samples used in CRC calculations : Yes
Used interface : Native Win32 interface for Win NT & 2000
Gap handling : Appended to previous track

Used output format : User Defined Encoder
Selected bitrate : 1024 kBit/s
Quality : High
Add ID3 tag : No
Command line compressor : C:\Program Files (x86)\Exact Audio Copy\FLAC\FLAC.EXE
Additional command line options : -8 -e -V -T "ARTIST=%artist%" -T "TITLE=%title%" -T "ALBUM=%albumtitle%" -T "DATE=%year%" -T "TRACKNUMBER=%tracknr%" -T "GENRE=%genre%" -T "PERFORMER=%albuminterpret%" -T "COMPOSER=%composer%" %haslyrics%--tag-from-file=LYRICS="%lyricsfile%"%haslyrics% -T "ALBUMARTIST=%albumartist%" -T "DISCNUMBER=%cdnumber%" -T "TOTALDISCS=%totalcds%" -T "TOTALTRACKS=%numtracks%" -T "COMMENT=%comment%" %source% -o %dest%

TOC of the extracted CD

Track | Start | Length | Start sector | End sector
---------------------------------------------------------
1 | 0:00.00 | 4:43.27 | 0 | 21251
2 | 4:43.27 | 3:57.72 | 21252 | 39098
3 | 8:41.24 | 4:27.67 | 39099 | 59190
4 | 13:09.16 | 5:32.15 | 59191 | 84105
5 | 18:41.31 | 4:33.70 | 84106 | 104650
6 | 23:15.26 | 4:35.65 | 104651 | 125340
7 | 27:51.16 | 3:44.30 | 125341 | 142170
8 | 31:35.46 | 8:28.23 | 142171 | 180293
9 | 40:03.69 | 5:55.48 | 180294 | 206966
10 | 45:59.42 | 3:59.12 | 206967 | 224903
11 | 49:58.54 | 5:32.20 | 224904 | 249823
12 | 55:30.74 | 4:38.31 | 249824 | 270704

Track 1

Filename E:\Music\Ripped\Masayoshi Takanaka - Ukulele Seychelles (2011) [FLAC]\01 - Oh! Tengo Suerte.wav

Pre-gap length 0:00:02.00

Peak level 99.6 %
Extraction speed 2.2 X
Track quality 100.0 %
Test CRC 46097B6A
Copy CRC 46097B6A
Accurately ripped (confidence 2) [600E62D2] (AR v1)
Copy OK

Track 2

Filename E:\Music\Ripped\Masayoshi Takanaka - Ukulele Seychelles (2011) [FLAC]\02 - トーキョー レギー.wav

Peak level 99.6 %
Extraction speed 2.4 X
Track quality 100.0 %
Test CRC DE485661
Copy CRC DE485661
Accurately ripped (confidence 2) [3C2E1B2E] (AR v1)
Copy OK

Track 3

Filename E:\Music\Ripped\Masayoshi Takanaka - Ukulele Seychelles (2011) [FLAC]\03 - 蜃気楼の島へ.wav

Peak level 99.6 %
Extraction speed 2.0 X
Track quality 99.9 %
Test CRC BB9A25FC
Copy CRC BB9A25FC
Accurately ripped (confidence 2) [15A3A189] (AR v1)
Copy OK

Track 4

Filename E:\Music\Ripped\Masayoshi Takanaka - Ukulele Seychelles (2011) [FLAC]\04 - 憧れのセーシェル諸島.wav

Peak level 99.6 %
Extraction speed 2.9 X
Track quality 100.0 %
Test CRC DA55F80C
Copy CRC DA55F80C
Accurately ripped (confidence 2) [436BD65D] (AR v1)
Copy OK

Track 5

Filename E:\Music\Ripped\Masayoshi Takanaka - Ukulele Seychelles (2011) [FLAC]\05 - Funkee Mah-Chan.wav

Peak level 99.6 %
Extraction speed 3.0 X
Track quality 100.0 %
Test CRC 98292935
Copy CRC 98292935
Accurately ripped (confidence 2) [E4AF44D6] (AR v1)
Copy OK

Track 6

Filename E:\Music\Ripped\Masayoshi Takanaka - Ukulele Seychelles (2011) [FLAC]\06 - サヨナラ……Fujiさん.wav

Peak level 99.6 %
Extraction speed 2.4 X
Track quality 99.9 %
Test CRC 96B8509F
Copy CRC 96B8509F
Accurately ripped (confidence 2) [6F79CAD7] (AR v1)
Copy OK

Track 7

Filename E:\Music\Ripped\Masayoshi Takanaka - Ukulele Seychelles (2011) [FLAC]\07 - バードアイランド急行.wav

Peak level 99.6 %
Extraction speed 2.4 X
Track quality 99.9 %
Test CRC EFB1D238
Copy CRC EFB1D238
Accurately ripped (confidence 2) [0486F34C] (AR v1)
Copy OK

Track 8

Filename E:\Music\Ripped\Masayoshi Takanaka - Ukulele Seychelles (2011) [FLAC]\08 - Tropic Birds.wav

Peak level 99.6 %
Extraction speed 3.2 X
Track quality 99.9 %
Test CRC 0B7F096E
Copy CRC 0B7F096E
Accurately ripped (confidence 2) [D1D4F740] (AR v1)
Copy OK

Track 9

Filename E:\Music\Ripped\Masayoshi Takanaka - Ukulele Seychelles (2011) [FLAC]\09 - Ukulele Encore.wav

Peak level 99.6 %
Extraction speed 3.9 X
Track quality 100.0 %
Test CRC 93336FE9
Copy CRC 93336FE9
Accurately ripped (confidence 2) [ECF4D89C] (AR v1)
Copy OK

Track 10

Filename E:\Music\Ripped\Masayoshi Takanaka - Ukulele Seychelles (2011) [FLAC]\10 - トーキョー レギー (karaoke).wav

Peak level 99.6 %
Extraction speed 3.9 X
Track quality 100.0 %
Test CRC A12976CA
Copy CRC A12976CA
Accurately ripped (confidence 2) [277A849E] (AR v1)
Copy OK

Track 11

Filename E:\Music\Ripped\Masayoshi Takanaka - Ukulele Seychelles (2011) [FLAC]\11 - 憧れのセーシェル諸島 (karaoke).wav

Peak level 99.6 %
Extraction speed 4.2 X
Track quality 100.0 %
Test CRC 82968E9A
Copy CRC 82968E9A
Accurately ripped (confidence 2) [90C4DDFC] (AR v1)
Copy OK

Track 12

Filename E:\Music\Ripped\Masayoshi Takanaka - Ukulele Seychelles (2011) [FLAC]\12 - サヨナラ……Fujiさん (karaoke).wav

Peak level 99.6 %
Extraction speed 4.2 X
Track quality 100.0 %
Test CRC 8776065A
Copy CRC 8776065A
Accurately ripped (confidence 2) [40063F55] (AR v1)
Copy OK

All tracks accurately ripped

No errors occurred

End of status report

---- CUETools DB Plugin V2.1.6

[CTDB TOCID: Qot_nJIX3GTpig9LBeT.y0AUQEI-] found
Submit result: Qot_nJIX3GTpig9LBeT.y0AUQEI- has been confirmed
Track | CTDB Status
1 | (4/4) Accurately ripped
2 | (4/4) Accurately ripped
3 | (4/4) Accurately ripped
4 | (4/4) Accurately ripped
5 | (4/4) Accurately ripped
6 | (4/4) Accurately ripped
7 | (4/4) Accurately ripped
8 | (4/4) Accurately ripped
9 | (4/4) Accurately ripped
10 | (4/4) Accurately ripped
11 | (4/4) Accurately ripped
12 | (4/4) Accurately ripped

==== Log checksum 362C1531CB3DCF4653E2441AE6500D7F87928CBA17F5162FF5B673485D3DB8C7 ====

Cue Sheet (.cue):


REM GENRE Jazz
REM DATE 2011
REM DISCID 9A0E190C
REM COMMENT "ExactAudioCopy v1.1"
CATALOG 4571113310189
PERFORMER "Masayoshi Takanaka"
TITLE "Ukulele Seychelles"
FILE "01 - Oh! Tengo Suerte.wav" WAVE
TRACK 01 AUDIO
TITLE "Oh! Tengo Suerte"
PERFORMER "Masayoshi Takanaka"
INDEX 01 00:00:00
FILE "02 - Tokyo Legie.wav" WAVE
TRACK 02 AUDIO
TITLE "Tokyo Legie"
PERFORMER "Masayoshi Takanaka"
INDEX 01 00:00:00
FILE "03 - Shinkirou no Shima E.wav" WAVE
TRACK 03 AUDIO
TITLE "Shinkirou no Shima E"
PERFORMER "Masayoshi Takanaka"
INDEX 01 00:00:00
FILE "04 - Akogare no Seychelles Shotou.wav" WAVE
TRACK 04 AUDIO
TITLE "Akogare no Seychelles Shotou"
PERFORMER "Masayoshi Takanaka"
INDEX 01 00:00:00
FILE "05 - Funkee Mah-Chan.wav" WAVE
TRACK 05 AUDIO
TITLE "Funkee Mah-Chan"
PERFORMER "Masayoshi Takanaka"
INDEX 01 00:00:00
FILE "06 - Sayonara... Fuji-san.wav" WAVE
TRACK 06 AUDIO
TITLE "Sayonara... Fuji-san"
PERFORMER "Masayoshi Takanaka"
INDEX 01 00:00:00
FILE "07 - Bird Island Kyuukou.wav" WAVE
TRACK 07 AUDIO
TITLE "Bird Island Kyuukou"
PERFORMER "Masayoshi Takanaka"
INDEX 01 00:00:00
FILE "08 - Tropic Birds.wav" WAVE
TRACK 08 AUDIO
TITLE "Tropic Birds"
PERFORMER "Masayoshi Takanaka"
INDEX 01 00:00:00
FILE "09 - Ukulele Encore.wav" WAVE
TRACK 09 AUDIO
TITLE "Ukulele Encore"
PERFORMER "Masayoshi Takanaka"
INDEX 01 00:00:00
FILE "10 - Tokyo Legie (karaoke).wav" WAVE
TRACK 10 AUDIO
TITLE "Tokyo Legie (karaoke)"
PERFORMER "Masayoshi Takanaka"
INDEX 01 00:00:00
FILE "11 - Akogare no Seychelles Shotou (karaoke).wav" WAVE
TRACK 11 AUDIO
TITLE "Akogare no Seychelles Shotou (karaoke)"
PERFORMER "Masayoshi Takanaka"
INDEX 01 00:00:00
FILE "12 - Sayonara... Fuji-san (karaoke).wav" WAVE
TRACK 12 AUDIO
TITLE "Sayonara... Fuji-san (karaoke)"
PERFORMER "Masayoshi Takanaka"
INDEX 01 00:00:00

Отчёт auCDtect Task manager:


-----------------------

DON'T MODIFY THIS FILE

-----------------------

PERFORMER: auCDtect Task Manager, ver. 1.6.0 RC1 build 1.6.0.1
Copyright (c) 2008-2010 y-soft. All rights reserved
http://y-soft.org

ANALYZER: auCDtect: CD records authenticity detector, version 0.8.2
Copyright (c) 2004 Oleg Berngardt. All rights reserved.
Copyright (c) 2004 Alexander Djourik. All rights reserved.

FILE: 12 - Sayonara... Fuji-san (karaoke).flac
Size: 25431654 Hash: 66D3583747E4595D669B32E23DB9972A Accuracy: -m0
Conclusion: CDDA 100%
Signature: ABDD5766F4A4692265AC81A0840AB2CDEB7FE44D
FILE: 11 - Akogare no Seychelles Shotou (karaoke).flac
Size: 33037681 Hash: C1D0E3CBB22A1F6F6269B37469C192B9 Accuracy: -m0
Conclusion: CDDA 100%
Signature: ED9388D6570E6A7F3ED4876301BE14B2B723007C
FILE: 10 - Tokyo Legie (karaoke).flac
Size: 23977674 Hash: 83F80E79B4AF0E5E93746F9A80F8D410 Accuracy: -m0
Conclusion: CDDA 100%
Signature: A83652D779C6A33A25AC15B93789220871F257A8
FILE: 09 - Ukulele Encore.flac
Size: 31757783 Hash: 0AEC2BB55A8A72A45DEC8AF0F053347E Accuracy: -m0
Conclusion: CDDA 100%
Signature: E23DCDCA54B8B430635FAF0DB2E3B78166584BE5
FILE: 08 - Tropic Birds.flac
Size: 43118845 Hash: 723CEE2C5AF97E8A624CE5D8F02A3C27 Accuracy: -m0
Conclusion: CDDA 100%
Signature: ED0DCE334141166D5401B50014C15502D787B98B
FILE: 07 - Bird Island Kyuukou.flac
Size: 20629607 Hash: 7888586D39C456329EC69DD9A38AD5AA Accuracy: -m0
Conclusion: CDDA 100%
Signature: 610D8FD0626F84D4D9A92CCB6096854FD5C1BF92
FILE: 06 - Sayonara... Fuji-san.flac
Size: 26751172 Hash: F9DE682B9E7E70460C98A276E0EE3B01 Accuracy: -m0
Conclusion: CDDA 100%
Signature: F4D52F49FB575558CB5979E086B3E00341A371DE
FILE: 05 - Funkee Mah-Chan.flac
Size: 27222557 Hash: EE958CBB59508C036B9A12EE9785CDE6 Accuracy: -m0
Conclusion: CDDA 100%
Signature: 984ECEBFE77963305E4C37479B010757FEAEF2CA
FILE: 04 - Akogare no Seychelles Shotou.flac
Size: 34121263 Hash: EC7343D03F83DA118E88BF00449CBD4E Accuracy: -m0
Conclusion: CDDA 100%
Signature: C214DC25A8EB194EF24312A38234D9241FFD84D1
FILE: 03 - Shinkirou no Shima E.flac
Size: 23398116 Hash: 0E6FF3010A21499C6656926B916C91AA Accuracy: -m0
Conclusion: CDDA 100%
Signature: D3918A657A42E50F7699DBB0C74706865DC5B245
FILE: 02 - Tokyo Legie.flac
Size: 24607308 Hash: EC65AC6A0944401AB802072570868982 Accuracy: -m0
Conclusion: CDDA 100%
Signature: 98066EA40D164E5EAFFAD641BC0D1BFACE941C44
FILE: 01 - Oh! Tengo Suerte.flac
Size: 28968488 Hash: EFCDEED1A3ACB2F94FD8351E31E8BD46 Accuracy: -m0
Conclusion: CDDA 100%
Signature: A8B4E1665589C57300FB4E38E825BAD163F94AFA
Детали торрента:
Название:Masayoshi Takanaka - Ukulele Seychelles (2011) Lagoon Records [FLAC|Lossless|tracks + .cue] <Jazz Fusion>
Дата добавления:03 Ноя 2017 09:26:24
Размер:327 MB
Раздают:1
Качают:0
Форум:Other Asian (Lossless)

All rights reserved © 2015-2018