TORRENTS45.XYZ

Скачать Эхо греха (2015) WEB-DLRip


Эхо греха (2015) WEB-DLRip
Производство: Россия / Медиапрофсоюз
Жанр: Мелодрама

Режиссер: Максим Демченко
Актеры: Валентина Гарцуева, Елена Побегаева, Руслан Чернецкий, Иван Николаев, Дмитрий Абазовик, Александра Гайдук ...

Описание:
Нина абсолютно счастлива. Она ждет ребенка и вот-вот выйдет замуж за любимого человека. Но все рушится в одночасье, когда накануне свадьбы ее жениха Сергея сажают в СИЗО. Ему предъявлено обвинение настолько же нелепое, насколько и страшное — изнасилование. Вскоре в тюремной драке Сергея убивают. Нина, которая была на большом сроке беременности, теряет ребенка. И врачи выносят страшный вердикт — детей у нее не будет больше никогда.
Костя, друг и одноклассник Сергея, уговаривает Нину отомстить людям, которые лишили ее всего…


Возраст: 12+ (зрителям, достигшим 12 лет)
Дата премьеры в России: 29 октября 2017

Продолжительность: 01:30:51
Качество видео: WEB-DLRip
Перевод: Не требуется (русский)
Субтитры: Отсутствуют

Видео: MPEG4, XviD, 720x400 (16:9), 25.000 fps, 1 948 Kbps (0.271 bit/pixel)
Аудио: AC-3, 48.0 KHz, 2 ch, 192 Kbps, CBR

MediaInfo:


Общее
Полное имя : D:\NNM\Эхо греха\Eho greha 2016 WEB-DLRip.avi
Формат : AVI
Формат/Информация : Audio Video Interleave
Размер файла : 1,36 Гбайт
Продолжительность : 1 ч. 30 м.
Общий поток : 2150 Кбит/сек
Программа кодирования : VirtualDubMod 1.5.10.3 | www.virtualdub-fr.org || (build 2550/release)
Библиотека кодирования : VirtualDubMod build 2550/release

Видео
Идентификатор : 0
Формат : MPEG-4 Visual
Профиль формата : Advanced Simple@L5
Параметр BVOP формата : 1
Параметр QPel формата : Нет
Параметр GMC формата : Без точки перехода
Параметр матрицы формата : Выборочная
Идентификатор кодека : XVID
Идентификатор кодека/Подсказка : XviD
Продолжительность : 1 ч. 30 м.
Битрейт : 1948 Кбит/сек
Ширина : 720 пикселей
Высота : 400 пикселей
Соотношение сторон : 16:9
Частота кадров : 25,000 кадров/сек
Цветовое пространство : YUV
Субдискретизация насыщенности : 4:2:0
Битовая глубина : 8 бит
Тип развёртки : Прогрессивная
Метод сжатия : С потерями
Бит/(Пиксели*Кадры) : 0.271
Размер потока : 1,24 Гбайт (91%)
Библиотека кодирования : XviD 73

Аудио
Идентификатор : 1
Формат : AC-3
Формат/Информация : Audio Coding 3
Расширение режима : CM (complete main)
Параметр Endianness формата : Big
Идентификатор кодека : 2000
Продолжительность : 1 ч. 30 м.
Вид битрейта : Постоянный
Битрейт : 192 Кбит/сек
Каналы : 2 канала
Расположение каналов : Front: L R
Частота : 48,0 КГц
Частота кадров : 31,250 кадров/сек (1536 spf)
Битовая глубина : 16 бит
Метод сжатия : С потерями
Размер потока : 125 Мбайт (9%)
Выравнивание : Разделение по промежуткам
Продолжительность промежутка : 40 мс. (1,00 видеокадр)
Время предзагрузки промежутка : 500 мс.
Скриншоты:


Все одноименные релизы в Клубе

Смотреть Online

Детали торрента:
Название:Эхо греха (2015) WEB-DLRip
Дата добавления:30 Окт 2017 08:19:32
Размер:1,36 GB
Раздают:
Качают:0
Форум:Отечественные Новинки (HD*Rip/LQ, DVDRip)

All rights reserved © 2015-2019