TORRENTS45.XYZ

Скачать Свадебный забег / Running Shaadi (2017) WEB-DLRip [MVO]


Свадебный забег / Running Shaadi (2017) WEB-DLRip
Производство: Индия
Жанр: Мелодрама, комедия

Режиссер: Амит Рой
Актеры: Амит Садх, Тапси Пану, Бриджендра Кала, Арш Баджва ...

Описание:
Одна из главных проблем в Индии - браки по договоренности, кого родители в спутники по жизни выбрали на том и женят/выдают замуж... Ну, а главные герои - очередные смельчаки, бросившие вызов устоявшимся нормам, создают сайт под названием Свадебный забег.com... "Какие функции он выполняет?", спросите вы. Его главная функция -организация побега влюбленных парочек, чтобы те не стали очередными жертвами воли родителей....


Дата мировой премьеры: 16 февраля 2017

Продолжительность: 01:54:53
Качество видео: WEB-DLRip
Перевод: Любительский многоголосый (FAN studio)
Субтитры: Отсутствуют

Видео: MPEG4, XviD, 720x304 (2.35:1), 23.976 fps, 1 616 Kbps (0.308 bit/pixel)
Аудио: AC-3, 48.0 KHz, 2 ch, 192 Kbps, CBR

MediaInfo:


Общее
Полное имя : D:\NNM\Свадебный забег\Svadebnyj zabeg 2017 WEB-DLRip.avi
Формат : AVI
Формат/Информация : Audio Video Interleave
Размер файла : 1,46 Гбайт
Продолжительность : 1 ч. 54 м.
Общий поток : 1817 Кбит/сек
Программа кодирования : VirtualDubMod 1.5.10.3 (build 2550/release)
Библиотека кодирования : VirtualDubMod build 2550/release

Видео
Идентификатор : 0
Формат : MPEG-4 Visual
Профиль формата : Advanced Simple@L5
Параметр BVOP формата : 1
Параметр QPel формата : Нет
Параметр GMC формата : Без точки перехода
Параметр матрицы формата : Выборочная
Идентификатор кодека : XVID
Идентификатор кодека/Подсказка : XviD
Продолжительность : 1 ч. 54 м.
Битрейт : 1616 Кбит/сек
Ширина : 720 пикселей
Высота : 304 пикселя
Соотношение сторон : 2,35:1
Частота кадров : 23,976 (24000/1001) кадра/сек
Частота кадров в оригинале : 23,976 (23976/1000) кадра/сек
Цветовое пространство : YUV
Субдискретизация насыщенности : 4:2:0
Битовая глубина : 8 бит
Тип развёртки : Прогрессивная
Метод сжатия : С потерями
Бит/(Пиксели*Кадры) : 0.308
Размер потока : 1,30 Гбайт (89%)
Библиотека кодирования : XviD 1.2.1 (UTC 2008-12-04)

Аудио
Идентификатор : 1
Формат : AC-3
Формат/Информация : Audio Coding 3
Расширение режима : CM (complete main)
Параметр Endianness формата : Big
Идентификатор кодека : 2000
Продолжительность : 1 ч. 54 м.
Вид битрейта : Постоянный
Битрейт : 192 Кбит/сек
Каналы : 2 канала
Расположение каналов : Front: L R
Частота : 48,0 КГц
Частота кадров : 31,250 кадров/сек (1536 spf)
Битовая глубина : 16 бит
Метод сжатия : С потерями
Размер потока : 158 Мбайт (11%)
Выравнивание : Разделение по промежуткам
Продолжительность промежутка : 42 мс. (1,00 видеокадр)
Время предзагрузки промежутка : 500 мс.
Скриншоты:


Все одноименные релизы в Клубе
Детали торрента:
Название:Свадебный забег / Running Shaadi (2017) WEB-DLRip [MVO]
Дата добавления:23 Окт 2017 19:32:34
Размер:1,46 GB
Раздают:2
Качают:0
Форум:Индийское кино

All rights reserved © 2015-2018