TORRENTS45.XYZ

Скачать Где логика? (2017.10.15) WEB-DLRip (сезон 5, выпуск 9)


Где логика? (2017.10.15) WEB-DLRip (сезон 5, выпуск 9)
Телекомпания: ТНТ
Жанр: ТВ-Шоу

Ведущие: Азамат Мусагалиев

Описание:
Звездные семейные пары, партнеры по съемочной площадке, просто хорошие друзья и знакомые будут вместе пытаться выстраивать логические связи между самыми, казалось бы, нелогичными событиями, предметами или фактами. Почему мы оставляем официантам на чай, но не оставляем врачам на бинты? Для чего нам мизинцы на ногах? Зачем мыть машину в ноябре? Почему существует сухое вино, но вы нигде не найдете мокрого? Правильного, однозначного ответа на эти вопросы попросту не существует. Поэтому решать, кто из пар был наиболее логичен в своих рассуждениях, будет ведущий шоу Азамат Мусагалиев. Его задача не только определить победителя, но и помочь паре выстроить логическую цепочку. Новую программу ТНТ невозможно подвести ни под один существующий формат. Это и викторина, и интеллектуальный конкурс, и даже в чем-то стендап-камеди. Но самая большая ценность нового проекта состоит в том, что играть в него могут не только непосредственные участники программы, но и зрители ТНТ у экранов телевизоров.

Релиз от: svlesin
Продолжительность: 00:46:57
Качество видео: WEB-DLRip
Субтитры: Отсутствуют

Видео: MPEG4, XviD, 720x400 (16:9), 25.000 fps, 1 800 Kbps (0.250 bit/pixel)
Аудио: AC-3, 44.1 KHz, 2 ch, 192 Kbps, CBR

Mediainfo:

Код: выделить все
 Общее
Полное имя                               : D:\[1]\Где логика\Где логика. Сезон 5. Выпуск 09 (2017.10.15)_WEB-DLRip.avi
Формат                                   : AVI
Формат/Информация                        : Audio Video Interleave
Размер файла                             : 671 Мбайт
Продолжительность                        : 46 м.
Общий поток                              : 1998 Кбит/сек
Название фильма                          : Gde logika. 5.09 (2017.10.15)_torrents45.xyz
Программа кодирования                    : VirtualDubModRus 1.5.10.2 (build 2542/release)
Библиотека кодирования                   : VirtualDubMod build 2542/release

Видео
Идентификатор                            : 0
Формат                                   : MPEG-4 Visual
Профиль формата                          : Advanced Simple@L5
Параметр BVOP формата                    : 1
Параметр QPel формата                    : Нет
Параметр GMC формата                     : Без точки перехода
Параметр матрицы формата                 : Default (H.263)
Идентификатор кодека                     : XVID
Идентификатор кодека/Подсказка           : XviD
Продолжительность                        : 46 м.
Битрейт                                  : 1800 Кбит/сек
Ширина                                   : 720 пикселей
Высота                                   : 400 пикселей
Соотношение сторон                       : 16:9
Частота кадров                           : 25,000 кадров/сек
Цветовое пространство                    : YUV
Субдискретизация насыщенности            : 4:2:0
Битовая глубина                          : 8 бит
Тип развёртки                            : Прогрессивная
Метод сжатия                             : С потерями
Бит/(Пиксели*Кадры)                      : 0.250
Размер потока                            : 604 Мбайт (90%)
Библиотека кодирования                   : XviD 67

Аудио
Идентификатор                            : 1
Формат                                   : AC-3
Формат/Информация                        : Audio Coding 3
Расширение режима                        : CM (complete main)
Параметр Endianness формата              : Big
Идентификатор кодека                     : 2000
Продолжительность                        : 46 м.
Продолжительность оригинала              : 46 м.
Вид битрейта                             : Постоянный
Битрейт                                  : 192 Кбит/сек
Каналы                                   : 2 канала
Расположение каналов                     : Front: L R
Частота                                  : 44,1 КГц
Битовая глубина                          : 16 бит
Метод сжатия                             : С потерями
Размер потока                            : 64,5 Мбайт (10%)
Выравнивание                             : Разделение по промежуткам
Продолжительность промежутка             : 160  мс. (4,00 видеокадра)
Время предзагрузки промежутка            : 640  мс.
 
Скриншоты:



Все одноименные релизы в Клубе
Детали торрента:
Название:Где логика? (2017.10.15) WEB-DLRip (сезон 5, выпуск 9)
Дата добавления:16 Окт 2017 00:25:30
Размер:671 MB
Раздают:
Качают:0
Форум:Телешоу

All rights reserved © 2015-2019