TORRENTS45.XYZ

Скачать NG: Через миллион лет / Year Million (2017) HDTVRip [H.264/720p-LQ] (Сезон 1, серии 1-6 из 6)


Через миллион лет / Year Million (2017) HDTVRip [H.264/720p-LQ] (Сезон 1, серии 1-6 из 6)
Производство: США, RadicalMedia for National Geographic
Жанр: Документально-драматический сериал

Режиссер: Марк Элайджа Розенберг
Участники: Миклос Баньяи, Джо Корриголл, Сиобхен Диллон ...

Описание:
Это новый сериал, посвященный прогнозам развития жизни в ближайшем и отдаленном будущем, когда искусственный интеллект будет буквально повсюду, а достижения медицины и биологии позволят людям жить сотни лет.



Релиз от: рип skorpionN
Продолжительность: 6х~00:46:57
Качество видео: HDTVRip
Перевод: Одноголосый закадровый, профессиональный
Субтитры: отсутствуют

Видео: AVC/H.264, 1280x720, ~5000 Kbps
Аудио: AC3, 2 ch, 192 Kbps

Mediainfo: (тех. данные всех серий идентичны)


Общее
Уникальный идентификатор : 238963937279988879983667894073977508680 (0xB3C6C7BE0BC07CDA929AD9BABF609348)
Полное имя : F:\КИНО\Year Million_720p\01_Homo sapiens 2_0.mkv
Формат : Matroska
Версия формата : Version 4 / Version 2
Размер файла : 1,70 Гбайт
Продолжительность : 46 м. 57 с.
Режим общего битрейта : Переменный
Общий поток : 5184 Кбит/сек
Дата кодирования : UTC 2017-10-02 11:38:59
Программа кодирования : mkvmerge v6.9.1 ('Blue Panther') 64bit built on Apr 18 2014 18:23:38
Библиотека кодирования : libebml v1.3.0 + libmatroska v1.4.1

Видео
Идентификатор : 1
Формат : AVC
Формат/Информация : Advanced Video Codec
Профиль формата : High@L4.1
Настройки формата : CABAC / 3 Ref Frames
Параметр CABAC формата : Да
Параметр RefFrames формата : 3 кадра
Идентификатор кодека : V_MPEG4/ISO/AVC
Продолжительность : 46 м. 57 с.
Вид битрейта : Переменный
Битрейт : 5000 Кбит/сек
Максимальный битрейт : 8000 Кбит/сек
Ширина : 1280 пикселей
Высота : 720 пикселей
Соотношение сторон : 16:9
Режим частоты кадров : Постоянный
Частота кадров : 25,000 кадров/сек
Стандарт вещания : NTSC
Цветовое пространство : YUV
Субдискретизация насыщенности : 4:2:0
Битовая глубина : 8 бит
Тип развёртки : Прогрессивная
Бит/(Пиксели*Кадры) : 0.217
Размер потока : 1,60 Гбайт (94%)
Библиотека кодирования : x264 core 114
Настройки программы : cabac=1 / ref=3 / deblock=1:0:0 / analyse=0x3:0x113 / me=hex / subme=7 / psy=1 / psy_rd=1.00:0.00 / mixed_ref=1 / me_range=16 / chroma_me=1 / trellis=1 / 8x8dct=1 / cqm=2 / deadzone=21,11 / fast_pskip=1 / chroma_qp_offset=-4 / threads=6 / sliced_threads=0 / slices=1 / nr=0 / decimate=1 / interlaced=0 / constrained_intra=0 / bframes=3 / b_pyramid=0 / b_adapt=1 / b_bias=0 / direct=1 / weightb=1 / open_gop=0 / weightp=2 / keyint=250 / keyint_min=25 / scenecut=40 / intra_refresh=0 / rc_lookahead=40 / rc=2pass / mbtree=1 / bitrate=5000 / ratetol=1.0 / qcomp=0.60 / qpmin=5 / qpmax=69 / qpstep=4 / cplxblur=20.0 / qblur=0.5 / vbv_maxrate=8000 / vbv_bufsize=7995 / nal_hrd=vbr / ip_ratio=1.40 / aq=1:1.00
Default : Да
Forced : Нет
Цветовой диапазон : Limited
Основные цвета : BT.709
Характеристики трансфера : BT.709
Коэффициенты матрицы : BT.709

Аудио
Идентификатор : 2
Формат : AC-3
Формат/Информация : Audio Coding 3
Параметр Endianness формата : Big
Идентификатор кодека : A_AC3
Продолжительность : 46 м. 57 с.
Вид битрейта : Постоянный
Битрейт : 192 Кбит/сек
Каналы : 2 канала
Расположение каналов : Front: L R
Частота : 48,0 КГц
Частота кадров : 31,250 кадров/сек (1536 SPF)
Битовая глубина : 16 бит
Метод сжатия : С потерями
Размер потока : 64,5 Мбайт (4%)
ServiceKind/String : Complete Main
Default : Да
Forced : Нет

Содержание:

01. Хомо сапиенс 2.0 / Homo Sapien 2.0
Достижения в области инжениринга и наук о нервной системе человека приблизили нас к той реальности, которую впервые описали авторы книг по научной фантастике.
02. Никогда не говори о смерти / Never Say Die
Последние прорывные открытия в области генетики позволили нам лучше понять биологическую природу человека, открыли для нас новые пути достижения более счатсливой и долгой жизни.
03. Чувак, где мое тело? / Dude, Where’s My Body?
Достижения в области графики привели к появлению виртуальных технологий.
04. Слияние разумов / Mind Meld
В течение жизни одного поколения интернет преобразил практически каждый аспект современной культуры, начиная от форм и методов обучения и работы и кончая видами наших коммуникаций.
05. Энергия в космосе / Energy Beyond Earth
Сверхпотребление энергии и ресурсов привело нас к критической точке, после которой мы должны или изобрести способы преодоления созданных нами же проблем, или начать поиск других планет, пригодных для жизни.
06. Тайны мироздания / Beyond the Cosmos
Человечеству всегда было присуще стремление познать неведомое. Этот неукротимый дух вел нас к новым берегам, новым глубинам, а в последнее столетие и к новым планетам.
Скриншоты:


Все одноименные релизы в Клубе

Смотреть Online

Детали торрента:
Название:NG: Через миллион лет / Year Million (2017) HDTVRip [H.264/720p-LQ] (Сезон 1, серии 1-6 из 6)
Дата добавления:06 Ноя 2017 23:32:44
Размер:10,2 GB
Раздают:2
Качают:0
Форум:National Geographic

All rights reserved © 2015-2019