TORRENTS45.XYZ

Скачать 145-ый км (2015) WEBRip [H.264/720p-LQ]


145-ый км (2015) WEBRip
Производство: Россия
Жанр: Короткометражный, комедия, криминал

Режиссер: Алина Поличук
Продюсер: Илья Полянский, Алина Поличук, Денис Лафанов
Актеры: Илья Полянский, Валентина Зудова, Катрин Асси, Валентин Валл, Дмитрий Астапенко, Павел Архипов, Михаил Сивак, Александр Сивак, Тимур Вардаев, Зинаида Казакова.

Описание:
Молодёжь умеет отдыхать, заводясь спиртным, энергетическим, курительным и другим кайфом, который отлично сносит башку. Трое друзей, устроили не хилую гулянку в боулинге, во время которой Аня увидела своего парня, недавно изменившего ей с какой-то толстой коровой. Ревность в опьянённом мозгу вспыхнула огнём и героиня решила заколоть его вилкой в глаз. Друзья согласились помочь опечаленной Ане наказать изменника Диму где-нибудь в безлюдном месте... Проснувшись утром в машине, Аня не сразу поняла, где находится и куда они направляются. Руслан напомнил ей подробности задуманного предприятия, от чего Ане стало дурно, но поорав друг надруга, друзья решили, что отступать поздно и наказание должно свершиться. Вот только в багажнике оказался совсем не Анин друг...


Возраст: 18+ (зрителям, достигшим 18 лет. запрещено для детей)

Продолжительность: 00:22:22
Качество видео: WEBRip
Субтитры: Английские, неотключаемые

Видео: AVC/H.264, 1280x720 (16:9), ~1022 kbps, 25.00 fps
Аудио: AAC, 2 ch, 126 kb/s, 44.1 kHz
Внимание! Ненормативная лексика!

Mediainfo:


General
Unique ID : 240094277170388096535260174660783760840 (0xB4A079CD3B7608A8A0290ADD5D8EE5C8)
Complete name : E:\Кино\Short_Films\145\“145-ый км“.mkv
Format : Matroska
Format version : Version 4 / Version 2
File size : 184 MiB
Duration : 22 min 22 s
Overall bit rate : 1 150 kb/s
Encoded date : UTC 2017-10-01 21:47:55
Writing application : mkvmerge v12.0.0 ('Trust / Lust') 64bit
Writing library : libebml v1.3.4 + libmatroska v1.4.5

Video
ID : 1
Format : AVC
Format/Info : Advanced Video Codec
Format profile : Main@L3.1
Format settings, CABAC : Yes
Format settings, ReFrames : 3 frames
Codec ID : V_MPEG4/ISO/AVC
Duration : 22 min 22 s
Bit rate : 1 022 kb/s
Width : 1 280 pixels
Height : 720 pixels
Display aspect ratio : 16:9
Frame rate mode : Constant
Frame rate : 25.000 FPS
Color space : YUV
Chroma subsampling : 4:2:0
Bit depth : 8 bits
Scan type : Progressive
Bits/(Pixel*Frame) : 0.044
Stream size : 163 MiB (89%)
Default : Yes
Forced : No
Color range : Limited
Color primaries : BT.709
Transfer characteristics : BT.709
Matrix coefficients : BT.709

Audio
ID : 2
Format : AAC
Format/Info : Advanced Audio Codec
Format profile : LC
Codec ID : A_AAC
Duration : 22 min 22 s
Bit rate : 126 kb/s
Channel(s) : 2 channels
Channel positions : Front: L R
Sampling rate : 44.1 kHz
Frame rate : 43.066 FPS (1024 spf)
Compression mode : Lossy
Stream size : 20.1 MiB (11%)
Default : Yes
Forced : No
Скриншоты:


Все одноименные релизы в Клубе
Детали торрента:
Название:145-ый км (2015) WEBRip [H.264/720p-LQ]
Дата добавления:02 Окт 2017 01:17:42
Размер:184 MB
Раздают:1
Качают:0
Форум:Отечественные Фильмы (HD*Rip/LQ, DVDRip, SATRip, VHSRip)

All rights reserved © 2015-2019