TORRENTS45.XYZ

Скачать Odesza - A Moment Apart (2017) [MP3|320 Kbps] <Chillout, Downtempo, Future Bass>


Odesza - A Moment Apart (2017)


Жанр: Chillout, Downtempo, Future Bass
Лейбл: Counter Records
Продолжительность: 00:59:36

Кодек: MP3
Битрейт: 320 Kbps




Треклист:

01. Intro (1:04)
02. A Moment Apart (3:54)
03. Higher Ground (feat. Naomi Wild) (3:35)
04. Boy (3:04)
05. Line Of Sight (feat. WYNNE & Mansionair) (3:56)
06. Late Night (3:49)
07. Across The Room (feat. Leon Bridges) (4:44)
08. Meridian (3:56)
09. Everything At Your Feet (feat. The Chamanas) (3:28)
10. Just A Memory (feat. Regina Spektor) (3:57)
11. Divide (feat. Kelsey Bulkin) (4:02)
12. Thin Floors And Tall Ceilings (2:58)
13. La Ciudad (4:31)
14. Falls (feat. Sasha Sloan) (3:53)
15. Show Me (3:39)
16. Corners Of The Earth (feat. RY X) (5:05)

Спектрограмма:




MediaInfo:

Общее
Полное имя : D:\Music\Electronic\MP3\Odesza\A Moment Apart (2017)\16. Odesza - Corners Of The Earth (feat. RY X).mp3
Формат : MPEG Audio
Размер файла : 11,7 Мбайт
Продолжительность : 5 м. 5 с.
Режим общего битрейта : Постоянный
Общий поток : 320 Кбит/сек
Альбом : A Moment Apart
Альбом/Исполнитель : Odesza
Трек : Corners Of The Earth (feat. RY X)
Трек/Положение : 16
Исполнитель : Odesza
Жанр : Electronic
Дата записи : 2017
Библиотека кодирования : LAME3.99.5Uш
Обложка : Yes
Тип обложки : Cover (front)
MIME-тип обложки : image/jpg

Аудио
Формат : MPEG Audio
Версия формата : Version 1
Профиль формата : Layer 3
Режим : Joint stereo
Продолжительность : 5 м. 5 с.
Вид битрейта : Постоянный
Битрейт : 320 Кбит/сек
Каналы : 2 канала
Частота : 44,1 КГц
Метод сжатия : С потерями
Размер потока : 11,6 Мбайт (100%)
Библиотека кодирования : LAME3.99.5Uш

Общее
Полное имя : D:\Music\Electronic\MP3\Odesza\A Moment Apart (2017)\01. Odesza - Intro.mp3
Формат : MPEG Audio
Размер файла : 2,48 Мбайт
Продолжительность : 1 м. 4 с.
Режим общего битрейта : Постоянный
Общий поток : 320 Кбит/сек
Альбом : A Moment Apart
Альбом/Исполнитель : Odesza
Трек : Intro
Трек/Положение : 01
Исполнитель : Odesza
Жанр : Electronic
Дата записи : 2017
Библиотека кодирования : LAME3.99.5ЄЄЄЄЄ00Й>
Обложка : Yes
Тип обложки : Cover (front)
MIME-тип обложки : image/jpg

Аудио
Формат : MPEG Audio
Версия формата : Version 1
Профиль формата : Layer 3
Режим : Joint stereo
Продолжительность : 1 м. 4 с.
Вид битрейта : Постоянный
Битрейт : 320 Кбит/сек
Каналы : 2 канала
Частота : 44,1 КГц
Метод сжатия : С потерями
Размер потока : 2,44 Мбайт (98%)
Библиотека кодирования : LAME3.99.5ЄЄЄЄЄ00Й>

Общее
Полное имя : D:\Music\Electronic\MP3\Odesza\A Moment Apart (2017)\02. Odesza - A Moment Apart.mp3
Формат : MPEG Audio
Размер файла : 8,98 Мбайт
Продолжительность : 3 м. 54 с.
Режим общего битрейта : Постоянный
Общий поток : 320 Кбит/сек
Альбом : A Moment Apart
Альбом/Исполнитель : Odesza
Трек : A Moment Apart
Трек/Положение : 02
Исполнитель : Odesza
Жанр : Electronic
Дата записи : 2017
Библиотека кодирования : LAME3.99.5UU0
Обложка : Yes
Тип обложки : Cover (front)
MIME-тип обложки : image/jpg

Аудио
Формат : MPEG Audio
Версия формата : Version 1
Профиль формата : Layer 3
Режим : Joint stereo
Продолжительность : 3 м. 54 с.
Вид битрейта : Постоянный
Битрейт : 320 Кбит/сек
Каналы : 2 канала
Частота : 44,1 КГц
Метод сжатия : С потерями
Размер потока : 8,94 Мбайт (100%)
Библиотека кодирования : LAME3.99.5UU0

Общее
Полное имя : D:\Music\Electronic\MP3\Odesza\A Moment Apart (2017)\03. Odesza - Higher Ground (feat. Naomi Wild).mp3
Формат : MPEG Audio
Размер файла : 8,25 Мбайт
Продолжительность : 3 м. 35 с.
Режим общего битрейта : Постоянный
Общий поток : 320 Кбит/сек
Альбом : A Moment Apart
Альбом/Исполнитель : Odesza
Трек : Higher Ground (feat. Naomi Wild)
Трек/Положение : 03
Исполнитель : Odesza
Жанр : Electronic
Дата записи : 2017
Библиотека кодирования : LAME3.99.5ЄЄЄЄЄЄЄЄЄЄ
Обложка : Yes
Тип обложки : Cover (front)
MIME-тип обложки : image/jpg

Аудио
Формат : MPEG Audio
Версия формата : Version 1
Профиль формата : Layer 3
Режим : Joint stereo
Продолжительность : 3 м. 35 с.
Вид битрейта : Постоянный
Битрейт : 320 Кбит/сек
Каналы : 2 канала
Частота : 44,1 КГц
Метод сжатия : С потерями
Размер потока : 8,21 Мбайт (99%)
Библиотека кодирования : LAME3.99.5ЄЄЄЄЄЄЄЄЄЄ

Общее
Полное имя : D:\Music\Electronic\MP3\Odesza\A Moment Apart (2017)\04. Odesza - Boy.mp3
Формат : MPEG Audio
Размер файла : 7,05 Мбайт
Продолжительность : 3 м. 3 с.
Режим общего битрейта : Постоянный
Общий поток : 320 Кбит/сек
Альбом : A Moment Apart
Альбом/Исполнитель : Odesza
Трек : Boy
Трек/Положение : 04
Исполнитель : Odesza
Жанр : Electronic
Дата записи : 2017
Библиотека кодирования : LAMEЂ
Обложка : Yes
Тип обложки : Cover (front)
MIME-тип обложки : image/jpg

Аудио
Формат : MPEG Audio
Версия формата : Version 1
Профиль формата : Layer 3
Режим : Joint stereo
Продолжительность : 3 м. 3 с.
Вид битрейта : Постоянный
Битрейт : 320 Кбит/сек
Каналы : 2 канала
Частота : 44,1 КГц
Метод сжатия : С потерями
Размер потока : 7,01 Мбайт (99%)
Библиотека кодирования : LAMEЂ

Общее
Полное имя : D:\Music\Electronic\MP3\Odesza\A Moment Apart (2017)\05. Odesza - Line Of Sight (feat. WYNNE & Mansionair).mp3
Формат : MPEG Audio
Размер файла : 9,06 Мбайт
Продолжительность : 3 м. 56 с.
Режим общего битрейта : Постоянный
Общий поток : 320 Кбит/сек
Альбом : A Moment Apart
Альбом/Исполнитель : Odesza
Трек : Line Of Sight (feat. WYNNE & Mansionair)
Трек/Положение : 05
Исполнитель : Odesza
Жанр : Electronic
Дата записи : 2017
Библиотека кодирования : LAME
Обложка : Yes
Тип обложки : Cover (front)
MIME-тип обложки : image/jpg

Аудио
Формат : MPEG Audio
Версия формата : Version 1
Профиль формата : Layer 3
Режим : Joint stereo
Продолжительность : 3 м. 56 с.
Вид битрейта : Постоянный
Битрейт : 320 Кбит/сек
Каналы : 2 канала
Частота : 44,1 КГц
Метод сжатия : С потерями
Размер потока : 9,02 Мбайт (100%)
Библиотека кодирования : LAME

Общее
Полное имя : D:\Music\Electronic\MP3\Odesza\A Moment Apart (2017)\06. Odesza - Late Night.mp3
Формат : MPEG Audio
Размер файла : 8,76 Мбайт
Продолжительность : 3 м. 48 с.
Режим общего битрейта : Постоянный
Общий поток : 320 Кбит/сек
Альбом : A Moment Apart
Альбом/Исполнитель : Odesza
Трек : Late Night
Трек/Положение : 06
Исполнитель : Odesza
Жанр : Electronic
Дата записи : 2017
Библиотека кодирования : LAME3.99
Обложка : Yes
Тип обложки : Cover (front)
MIME-тип обложки : image/jpg

Аудио
Формат : MPEG Audio
Версия формата : Version 1
Профиль формата : Layer 3
Режим : Joint stereo
Продолжительность : 3 м. 48 с.
Вид битрейта : Постоянный
Битрейт : 320 Кбит/сек
Каналы : 2 канала
Частота : 44,1 КГц
Метод сжатия : С потерями
Размер потока : 8,72 Мбайт (100%)
Библиотека кодирования : LAME3.99

Общее
Полное имя : D:\Music\Electronic\MP3\Odesza\A Moment Apart (2017)\07. Odesza - Across The Room (feat. Leon Bridges).mp3
Формат : MPEG Audio
Размер файла : 10,9 Мбайт
Продолжительность : 4 м. 43 с.
Режим общего битрейта : Постоянный
Общий поток : 320 Кбит/сек
Альбом : A Moment Apart
Альбом/Исполнитель : Odesza
Трек : Across The Room (feat. Leon Bridges)
Трек/Положение : 07
Исполнитель : Odesza
Жанр : Electronic
Дата записи : 2017
Библиотека кодирования : LAME
Обложка : Yes
Тип обложки : Cover (front)
MIME-тип обложки : image/jpg

Аудио
Формат : MPEG Audio
Версия формата : Version 1
Профиль формата : Layer 3
Режим : Joint stereo
Продолжительность : 4 м. 43 с.
Вид битрейта : Постоянный
Битрейт : 320 Кбит/сек
Каналы : 2 канала
Частота : 44,1 КГц
Метод сжатия : С потерями
Размер потока : 10,8 Мбайт (100%)
Библиотека кодирования : LAME

Общее
Полное имя : D:\Music\Electronic\MP3\Odesza\A Moment Apart (2017)\08. Odesza - Meridian.mp3
Формат : MPEG Audio
Размер файла : 9,04 Мбайт
Продолжительность : 3 м. 55 с.
Режим общего битрейта : Постоянный
Общий поток : 320 Кбит/сек
Альбом : A Moment Apart
Альбом/Исполнитель : Odesza
Трек : Meridian
Трек/Положение : 08
Исполнитель : Odesza
Жанр : Electronic
Дата записи : 2017
Библиотека кодирования : LAME3.99.5
Обложка : Yes
Тип обложки : Cover (front)
MIME-тип обложки : image/jpg

Аудио
Формат : MPEG Audio
Версия формата : Version 1
Профиль формата : Layer 3
Режим : Joint stereo
Продолжительность : 3 м. 56 с.
Вид битрейта : Постоянный
Битрейт : 320 Кбит/сек
Каналы : 2 канала
Частота : 44,1 КГц
Метод сжатия : С потерями
Размер потока : 9,00 Мбайт (100%)
Библиотека кодирования : LAME3.99.5

Общее
Полное имя : D:\Music\Electronic\MP3\Odesza\A Moment Apart (2017)\09. Odesza - Everything At Your Feet (feat. The Chamanas).mp3
Формат : MPEG Audio
Размер файла : 7,98 Мбайт
Продолжительность : 3 м. 28 с.
Режим общего битрейта : Постоянный
Общий поток : 320 Кбит/сек
Альбом : A Moment Apart
Альбом/Исполнитель : Odesza
Трек : Everything At Your Feet (feat. The Chamanas)
Трек/Положение : 09
Исполнитель : Odesza
Жанр : Electronic
Дата записи : 2017
Библиотека кодирования : LAME3.99.5
Обложка : Yes
Тип обложки : Cover (front)
MIME-тип обложки : image/jpg

Аудио
Формат : MPEG Audio
Версия формата : Version 1
Профиль формата : Layer 3
Режим : Joint stereo
Продолжительность : 3 м. 28 с.
Вид битрейта : Постоянный
Битрейт : 320 Кбит/сек
Каналы : 2 канала
Частота : 44,1 КГц
Метод сжатия : С потерями
Размер потока : 7,94 Мбайт (99%)
Библиотека кодирования : LAME3.99.5

Общее
Полное имя : D:\Music\Electronic\MP3\Odesza\A Moment Apart (2017)\10. Odesza - Just A Memory (feat. Regina Spektor).mp3
Формат : MPEG Audio
Размер файла : 9,08 Мбайт
Продолжительность : 3 м. 56 с.
Режим общего битрейта : Постоянный
Общий поток : 320 Кбит/сек
Альбом : A Moment Apart
Альбом/Исполнитель : Odesza
Трек : Just A Memory (feat. Regina Spektor)
Трек/Положение : 10
Исполнитель : Odesza
Жанр : Electronic
Дата записи : 2017
Библиотека кодирования : LAME3.99.5`Б
Обложка : Yes
Тип обложки : Cover (front)
MIME-тип обложки : image/jpg

Аудио
Формат : MPEG Audio
Версия формата : Version 1
Профиль формата : Layer 3
Режим : Joint stereo
Продолжительность : 3 м. 57 с.
Вид битрейта : Постоянный
Битрейт : 320 Кбит/сек
Каналы : 2 канала
Частота : 44,1 КГц
Метод сжатия : С потерями
Размер потока : 9,03 Мбайт (100%)
Библиотека кодирования : LAME3.99.5`Б

Общее
Полное имя : D:\Music\Electronic\MP3\Odesza\A Moment Apart (2017)\11. Odesza - Divide (feat. Kelsey Bulkin).mp3
Формат : MPEG Audio
Размер файла : 9,27 Мбайт
Продолжительность : 4 м. 1 с.
Режим общего битрейта : Постоянный
Общий поток : 320 Кбит/сек
Альбом : A Moment Apart
Альбом/Исполнитель : Odesza
Трек : Divide (feat. Kelsey Bulkin)
Трек/Положение : 11
Исполнитель : Odesza
Жанр : Electronic
Дата записи : 2017
Библиотека кодирования : LAME3.99.5ЄЄЪ'a
Обложка : Yes
Тип обложки : Cover (front)
MIME-тип обложки : image/jpg

Аудио
Формат : MPEG Audio
Версия формата : Version 1
Профиль формата : Layer 3
Режим : Joint stereo
Продолжительность : 4 м. 2 с.
Вид битрейта : Постоянный
Битрейт : 320 Кбит/сек
Каналы : 2 канала
Частота : 44,1 КГц
Метод сжатия : С потерями
Размер потока : 9,23 Мбайт (100%)
Библиотека кодирования : LAME3.99.5ЄЄЪ'a

Общее
Полное имя : D:\Music\Electronic\MP3\Odesza\A Moment Apart (2017)\12. Odesza - Thin Floors And Tall Ceilings.mp3
Формат : MPEG Audio
Размер файла : 6,84 Мбайт
Продолжительность : 2 м. 58 с.
Режим общего битрейта : Постоянный
Общий поток : 320 Кбит/сек
Альбом : A Moment Apart
Альбом/Исполнитель : Odesza
Трек : Thin Floors And Tall Ceilings
Трек/Положение : 12
Исполнитель : Odesza
Жанр : Electronic
Дата записи : 2017
Библиотека кодирования : LAME3.99.5
Обложка : Yes
Тип обложки : Cover (front)
MIME-тип обложки : image/jpg

Аудио
Формат : MPEG Audio
Версия формата : Version 1
Профиль формата : Layer 3
Режим : Joint stereo
Продолжительность : 2 м. 58 с.
Вид битрейта : Постоянный
Битрейт : 320 Кбит/сек
Каналы : 2 канала
Частота : 44,1 КГц
Метод сжатия : С потерями
Размер потока : 6,80 Мбайт (99%)
Библиотека кодирования : LAME3.99.5

Общее
Полное имя : D:\Music\Electronic\MP3\Odesza\A Moment Apart (2017)\13. Odesza - La Ciudad.mp3
Формат : MPEG Audio
Размер файла : 10,4 Мбайт
Продолжительность : 4 м. 31 с.
Режим общего битрейта : Постоянный
Общий поток : 320 Кбит/сек
Альбом : A Moment Apart
Альбом/Исполнитель : Odesza
Трек : La Ciudad
Трек/Положение : 13
Исполнитель : Odesza
Жанр : Electronic
Дата записи : 2017
Библиотека кодирования : LAME3.99.5
Обложка : Yes
Тип обложки : Cover (front)
MIME-тип обложки : image/jpg

Аудио
Формат : MPEG Audio
Версия формата : Version 1
Профиль формата : Layer 3
Режим : Joint stereo
Продолжительность : 4 м. 31 с.
Вид битрейта : Постоянный
Битрейт : 320 Кбит/сек
Каналы : 2 канала
Частота : 44,1 КГц
Метод сжатия : С потерями
Размер потока : 10,3 Мбайт (100%)
Библиотека кодирования : LAME3.99.5

Общее
Полное имя : D:\Music\Electronic\MP3\Odesza\A Moment Apart (2017)\14. Odesza - Falls (feat. Sasha Sloan).mp3
Формат : MPEG Audio
Размер файла : 8,93 Мбайт
Продолжительность : 3 м. 52 с.
Режим общего битрейта : Постоянный
Общий поток : 320 Кбит/сек
Альбом : A Moment Apart
Альбом/Исполнитель : Odesza
Трек : Falls (feat. Sasha Sloan)
Трек/Положение : 14
Исполнитель : Odesza
Жанр : Electronic
Дата записи : 2017
Библиотека кодирования : LAME3.99.Ђ№5ЯЋЉ„8C
Обложка : Yes
Тип обложки : Cover (front)
MIME-тип обложки : image/jpg

Аудио
Формат : MPEG Audio
Версия формата : Version 1
Профиль формата : Layer 3
Режим : Joint stereo
Продолжительность : 3 м. 53 с.
Вид битрейта : Постоянный
Битрейт : 320 Кбит/сек
Каналы : 2 канала
Частота : 44,1 КГц
Метод сжатия : С потерями
Размер потока : 8,89 Мбайт (100%)
Библиотека кодирования : LAME3.99.Ђ№5ЯЋЉ„8C

Общее
Полное имя : D:\Music\Electronic\MP3\Odesza\A Moment Apart (2017)\15. Odesza - Show Me.mp3
Формат : MPEG Audio
Размер файла : 8,38 Мбайт
Продолжительность : 3 м. 38 с.
Режим общего битрейта : Постоянный
Общий поток : 320 Кбит/сек
Альбом : A Moment Apart
Альбом/Исполнитель : Odesza
Трек : Show Me
Трек/Положение : 15
Исполнитель : Odesza
Жанр : Electronic
Дата записи : 2017
Библиотека кодирования : LAME3.99.5ЄЄЄЄЄЄЄЄЄЄ
Обложка : Yes
Тип обложки : Cover (front)
MIME-тип обложки : image/jpg

Аудио
Формат : MPEG Audio
Версия формата : Version 1
Профиль формата : Layer 3
Режим : Joint stereo
Продолжительность : 3 м. 38 с.
Вид битрейта : Постоянный
Битрейт : 320 Кбит/сек
Каналы : 2 канала
Частота : 44,1 КГц
Метод сжатия : С потерями
Размер потока : 8,34 Мбайт (100%)
Библиотека кодирования : LAME3.99.5ЄЄЄЄЄЄЄЄЄЄ

Детали торрента:
Название:Odesza - A Moment Apart (2017) [MP3|320 Kbps] <Chillout, Downtempo, Future Bass>
Дата добавления:12 Сен 2017 17:16:29
Размер:146 MB
Раздают:5
Качают:0
Форум:Drum'n'Bass, Jungle, Breaks, Breakbeat, Dubstep

All rights reserved © 2015-2019