TORRENTS45.XYZ

Скачать Чудо техники (2017.09.10) SATRip


Чудо техники (2017.09.10) SATRip
Телекомпания: НТВ
Жанр: Телепередача

Ведущий: Сергей Малозёмов

Описание:
«Чудо техники» — это доходчивый и интересный рассказ о новейших научных разработках, которые способны поменять или уже меняют нашу повседневную жизнь. Автор проекта — Сергей Малозёмов — хорошо знаком зрителям НТВ по репортажам программы «Сегодня», касающимся новых технологий, гаджетов, медицины. Он в курсе последних научных разработок и одним из первых узнает о значимых изобретениях. Теперь обо всем, что происходит на передовой научно-технического прогресса, узнают и зрители НТВ. Новинки и открытия со всего мира создатели проекта подвергнут самому тщательному анализу: что-то протестируют на себе или специально приглашенных героях, узнают мнения экспертов, постараются проникнуть в саму суть вещей при помощи компьютерной графики и экспериментов в лаборатории. Когда можно будет попробовать мясо из пробирки и каково оно будет на вкус? Можно ли доверить уборку дома роботу и правда ли инфракрасный обогреватель лучше греет? Скоро ли нам будут доступны безболезненные уколы? Ответы на эти и многие другие вопросы – в каждом выпуске проекта «Чудо техники».

Релиз от: -=FOX=-
Продолжительность: ~ 00:39:45
Качество видео: SATRip
Субтитры: Отсутствуют

Видео: MPEG4, XviD, 720x448 (1.607), 25.000 fps, 1 800 Kbps (0.223 bit/pixel)
Аудио: MP3, 48.0 KHz, 2 ch, 128 Kbps, CBR

Mediainfo:

Код: выделить все
 Общее
Полное имя                               : D:\[1]\Чудо техники\Чудо техники (2017.09.10).avi
Формат                                   : AVI
Формат/Информация                        : Audio Video Interleave
Размер файла                             : 551 Мбайт
Продолжительность                        : 39 м.
Общий поток                              : 1938 Кбит/сек
Программа кодирования                    : VirtualDubMod 1.5.10.3 | www.virtualdub-fr.org || (build 2550/release)
Библиотека кодирования                   : VirtualDubMod build 2550/release

Видео
Идентификатор                            : 0
Формат                                   : MPEG-4 Visual
Профиль формата                          : Advanced Simple@L5
Параметр BVOP формата                    : 2
Параметр QPel формата                    : Нет
Параметр GMC формата                     : Без точки перехода
Параметр матрицы формата                 : Default (MPEG)
Идентификатор кодека                     : XVID
Идентификатор кодека/Подсказка           : XviD
Продолжительность                        : 39 м.
Битрейт                                  : 1800 Кбит/сек
Ширина                                   : 720 пикселей
Высота                                   : 448 пикселей
Соотношение сторон                       : 16:10
Частота кадров                           : 25,000 кадров/сек
Цветовое пространство                    : YUV
Субдискретизация насыщенности            : 4:2:0
Битовая глубина                          : 8 бит
Тип развёртки                            : Прогрессивная
Метод сжатия                             : С потерями
Бит/(Пиксели*Кадры)                      : 0.223
Размер потока                            : 512 Мбайт (93%)
Библиотека кодирования                   : XviD 73

Аудио
Идентификатор                            : 1
Формат                                   : MPEG Audio
Версия формата                           : Version 1
Профиль формата                          : Layer 3
Идентификатор кодека                     : 55
Идентификатор кодека/Подсказка           : MP3
Продолжительность                        : 39 м.
Вид битрейта                             : Постоянный
Битрейт                                  : 128 Кбит/сек
Каналы                                   : 2 канала
Частота                                  : 48,0 КГц
Метод сжатия                             : С потерями
Размер потока                            : 36,4 Мбайт (7%)
Выравнивание                             : Соединение по промежуткам
Продолжительность промежутка             : 40  мс. (1,00 видеокадр)
Время предзагрузки промежутка            : 504  мс.
Библиотека кодирования                   : LAME3.99r
Настройки программы                      : -m s -V 4 -q 2 -lowpass 17 -b 128
 

В выпуске:

Все самое интересное — в программе «Чудо техники».
Скриншоты:



Все одноименные релизы в Клубе
Детали торрента:
Название:Чудо техники (2017.09.10) SATRip
Дата добавления:10 Сен 2017 09:34:41
Размер:551 MB
Раздают:
Качают:0
Форум:Тележурналистика

All rights reserved © 2015-2018