TORRENTS45.XYZ

Скачать Империя света / The Empire of Light (201?) DVB (Серии 1-3 из 3)


Империя света / The Empire of Light (201?) DVB (Серии 1-3 из 3)
Производство: Южная Корея
Жанр: Документальный, познавательный, архитектура, история

Описание:
Цикл фильмов об архитектурных стилях Древнего Рима и Византии, Средневековой Европы и эпохи Возрождения. Авторы рассматривают различия стилей через призму отношения к свету. Круговой свет (Романский стиль) - символ единства, самоцентрирующаяся архитектура. Вертикальный свет (Готический стиль) - воля к материализму, движение к экспансивной архитектуре. И, наконец, архитектура эпохи Возрождения - это новый купол, объединяющий вертикаль и круг, небеса и Землю, разум и материю. Это символ самого человека.

Релиз от: skorpionN
Продолжительность: 00:50:13+00:52:01+00:50:19
Качество видео: DVB
Перевод: Одноголосый закадровый, профессиональный (SDI Media)
Субтитры: отсутствуют

Видео: MPEG-2, 720х576@768x576, ~2550 Kbps
Аудио: MP2, 2 ch, 192 Kbps

Mediainfo:


Общее
Идентификатор : 1 (0x1)
Полное имя : F:\КИНО\The Empire of Light\01_Круговой свет.ts
Формат : MPEG-TS
Размер файла : 1,06 Гбайт
Продолжительность : 53 м. 11 с.
Режим общего битрейта : Переменный
Общий поток : 2854 Кбит/сек

Видео
Идентификатор : 201 (0xC9)
Идентификатор меню : 101 (0x65)
Формат : MPEG Video
Версия формата : Version 2
Профиль формата : Main@Main
Параметр BVOP формата : Да
Параметр матрицы формата : Выборочная
Параметр GOP формата : M=3, N=15
Структура изображения : Frame
Идентификатор кодека : 2
Продолжительность : 53 м. 11 с.
Вид битрейта : Переменный
Битрейт : 2519 Кбит/сек
Максимальный битрейт : 9800 Кбит/сек
Ширина : 720 пикселей
Высота : 576 пикселей
Соотношение сторон : 4:3
Частота кадров : 25,000 кадров/сек
Стандарт вещания : PAL
Цветовое пространство : YUV
Субдискретизация насыщенности : 4:2:0
Битовая глубина : 8 бит
Тип развёртки : Чересстрочная
Порядок развёртки : Верхнее поле первое
Метод сжатия : С потерями
Бит/(Пиксели*Кадры) : 0.243
Временной код первого кадра : 00:00:00:00
Оригинал временного кода : Group of pictures header
GOP, открыто/закрыто : Открыто
GOP, открыто/закрыто на первом кадре : Закрыто
Размер потока : 959 Мбайт (88%)

Аудио
Идентификатор : 301 (0x12D)
Идентификатор меню : 101 (0x65)
Формат : MPEG Audio
Версия формата : Version 1
Профиль формата : Layer 2
Идентификатор кодека : 3
Продолжительность : 53 м. 11 с.
Вид битрейта : Постоянный
Битрейт : 192 Кбит/сек
Каналы : 2 канала
Частота : 48,0 КГц
Метод сжатия : С потерями
Размер потока : 73,1 Мбайт (7%)
Язык : Russian

Общее
Идентификатор : 1 (0x1)
Полное имя : F:\КИНО\The Empire of Light\02_Вертикальный свет.ts
Формат : MPEG-TS
Размер файла : 1,03 Гбайт
Продолжительность : 52 м. 1 с.
Режим общего битрейта : Переменный
Общий поток : 2846 Кбит/сек

Видео
Идентификатор : 201 (0xC9)
Идентификатор меню : 101 (0x65)
Формат : MPEG Video
Версия формата : Version 2
Профиль формата : Main@Main
Параметр BVOP формата : Да
Параметр матрицы формата : Выборочная
Параметр GOP формата : M=3, N=15
Структура изображения : Frame
Идентификатор кодека : 2
Продолжительность : 52 м. 1 с.
Вид битрейта : Переменный
Битрейт : 2511 Кбит/сек
Максимальный битрейт : 9800 Кбит/сек
Ширина : 720 пикселей
Высота : 576 пикселей
Соотношение сторон : 4:3
Частота кадров : 25,000 кадров/сек
Стандарт вещания : PAL
Цветовое пространство : YUV
Субдискретизация насыщенности : 4:2:0
Битовая глубина : 8 бит
Тип развёртки : Чересстрочная
Порядок развёртки : Верхнее поле первое
Метод сжатия : С потерями
Бит/(Пиксели*Кадры) : 0.242
Временной код первого кадра : 00:00:00:00
Оригинал временного кода : Group of pictures header
GOP, открыто/закрыто : Открыто
GOP, открыто/закрыто на первом кадре : Закрыто
Размер потока : 934 Мбайт (88%)

Аудио
Идентификатор : 301 (0x12D)
Идентификатор меню : 101 (0x65)
Формат : MPEG Audio
Версия формата : Version 1
Профиль формата : Layer 2
Идентификатор кодека : 3
Продолжительность : 52 м. 1 с.
Вид битрейта : Постоянный
Битрейт : 192 Кбит/сек
Каналы : 2 канала
Частота : 48,0 КГц
Метод сжатия : С потерями
Размер потока : 71,4 Мбайт (7%)
Язык : Russian

Общее
Идентификатор : 1 (0x1)
Полное имя : F:\КИНО\The Empire of Light\03_Свет человека.ts
Формат : MPEG-TS
Размер файла : 1,06 Гбайт
Продолжительность : 50 м. 19 с.
Режим общего битрейта : Переменный
Общий поток : 3003 Кбит/сек

Видео
Идентификатор : 201 (0xC9)
Идентификатор меню : 101 (0x65)
Формат : MPEG Video
Версия формата : Version 2
Профиль формата : Main@Main
Параметр BVOP формата : Да
Параметр матрицы формата : Выборочная
Параметр GOP формата : M=3, N=15
Структура изображения : Frame
Идентификатор кодека : 2
Продолжительность : 50 м. 19 с.
Вид битрейта : Переменный
Битрейт : 2661 Кбит/сек
Максимальный битрейт : 9800 Кбит/сек
Ширина : 720 пикселей
Высота : 576 пикселей
Соотношение сторон : 4:3
Частота кадров : 25,000 кадров/сек
Стандарт вещания : PAL
Цветовое пространство : YUV
Субдискретизация насыщенности : 4:2:0
Битовая глубина : 8 бит
Тип развёртки : Чересстрочная
Порядок развёртки : Верхнее поле первое
Метод сжатия : С потерями
Бит/(Пиксели*Кадры) : 0.257
Временной код первого кадра : 00:00:00:00
Оригинал временного кода : Group of pictures header
GOP, открыто/закрыто : Открыто
GOP, открыто/закрыто на первом кадре : Закрыто
Размер потока : 958 Мбайт (89%)

Аудио
Идентификатор : 301 (0x12D)
Идентификатор меню : 101 (0x65)
Формат : MPEG Audio
Версия формата : Version 1
Профиль формата : Layer 2
Идентификатор кодека : 3
Продолжительность : 50 м. 19 с.
Вид битрейта : Постоянный
Битрейт : 192 Кбит/сек
Каналы : 2 канала
Частота : 48,0 КГц
Метод сжатия : С потерями
Размер потока : 69,1 Мбайт (6%)
Язык : Russian

Содержание:

01. Круговой свет (Закон круга. Наследие света)
02. Вертикальный свет (Воскрешение света)
03. Свет человека
Скриншоты:

Дополнительные скриншоты:





Все одноименные релизы в Клубе
Детали торрента:
Название:Империя света / The Empire of Light (201?) DVB (Серии 1-3 из 3)
Дата добавления:03 Сен 2017 00:34:00
Размер:3,15 GB
Раздают:5
Качают:0
Форум:Документалистика и Телепередачи

All rights reserved © 2015-2018