TORRENTS45.XYZ

Скачать Чудо-женщина / Wonder Woman (2017) WEB-DL [H.264/1080p-LQ] [EN / EN Sub]


Чудо-женщина / Wonder Woman (2017) WEB-DL [H.264/1080p-LQ] [EN / EN Sub]«Справедливость наступит вместе с ней»
Производство: США, Китай, Гонконг, Великобритания, Италия, Канада, Новая Зеландия / Warner Bros., Atlas Entertainment, Cruel & Unusual Films
Жанр: Боевик, Приключения, Фэнтези, Фантастика

Режиссер: Пэтти Дженкинс
Продюсер: Джон Берг, Уэсли Коллер, Томми Гормли, ...
Актеры: Галь Гадот, Крис Пайн, Конни Нильсен, Робин Райт, Дэнни Хьюстон, Дэвид Тьюлис, Саид Тагмауи, Юэн Бремнер, Юджин «Храбрый камень», Люси Дэвис ...

Описание:
Перед тем как стать Чудо-Женщиной, она была Дианой — принцессой амазонок, обученной быть непобедимой воительницей. И когда на берегах ограждённого от внешнего мира райского острова, который служил ей родиной, терпит крушение американский пилот и рассказывает о серьёзном конфликте, бушующем во внешнем мире, Диана покидает свой дом, чтобы справиться с этой угрозой. И там, сражаясь бок о бок с человеком в войне за мир, Диана обнаружит всю полноту своей власти… и своё истинное предназначение.



Возраст: 16+ (зрителям, достигшим 16 лет)
Рейтинг MPAA: PG-13 (детям до 13 лет просмотр нежелателен)
Премьера (мир): 15 мая 2017, ...
Премьера (РФ): 1 июня 2017, «Каро-Премьер»


Продолжительность: 02:21:13
Качество видео: WEB-DL 1080p
Перевод: Отсутствует
Язык озвучки: Английский
Субтитры: Английские (отдельным файлом)

Видео: AVC, 1912x792 (2.40:1), 23.976 fps, 4 537 Kbps (0.125 bit/pixel)
Аудио: AC-3, 48.0 KHz, 6 ch, 384 Kbps, CBR (English)

Mediainfo:

General
Complete name : Wonder.Woman.2017.1080p.WEB-DL.DD5.1.H264.mkv
Format : Matroska
Format version : Version 4 / Version 2
File size : 4.86 GiB
Duration : 2 h 21 min
Overall bit rate : 4 923 kb/s
Encoded date : UTC 2017-08-28 23:46:08
Writing application : mkvmerge v7.8.0 ('River Man') 64bit built on Mar 27 2015 16:31:37
Writing library : libebml v1.3.1 + libmatroska v1.4.2

Video
ID : 1
Format : AVC
Format/Info : Advanced Video Codec
Format profile : High@L4
Format settings, CABAC : Yes
Format settings, RefFrames : 5 frames
Codec ID : V_MPEG4/ISO/AVC
Duration : 2 h 21 min
Bit rate : 4 537 kb/s
Width : 1 912 pixels
Height : 792 pixels
Display aspect ratio : 2.40:1
Frame rate mode : Constant
Frame rate : 23.976 (24000/1001) FPS
Color space : YUV
Chroma subsampling : 4:2:0
Bit depth : 8 bits
Scan type : Progressive
Bits/(Pixel*Frame) : 0.125
Stream size : 4.48 GiB (92%)
Language : English
Default : Yes
Forced : No
Color range : Limited
Color primaries : BT.709
Transfer characteristics : BT.709
Matrix coefficients : BT.709

Audio
ID : 2
Format : AC-3
Format/Info : Audio Coding 3
Format settings, Endianness : Big
Codec ID : A_AC3
Duration : 2 h 21 min
Bit rate mode : Constant
Bit rate : 384 kb/s
Channel(s) : 6 channels
Channel positions : Front: L C R, Side: L R, LFE
Sampling rate : 48.0 kHz
Frame rate : 31.250 FPS (1536 SPF)
Bit depth : 16 bits
Compression mode : Lossy
Stream size : 388 MiB (8%)
Language : English
Service kind : Complete Main
Default : Yes
Forced : No

Menu
00:00:00.000 : en:1
00:10:24.000 : en:2
00:23:10.000 : en:3
00:33:08.000 : en:4
00:43:53.000 : en:5
00:54:23.000 : en:6
01:07:36.000 : en:7
01:22:28.000 : en:8
01:34:00.000 : en:9
01:45:35.000 : en:10
01:57:41.000 : en:11
02:10:38.000 : en:12
Скриншоты:

Дополнительные скриншоты:




Все одноименные релизы в Клубе

Смотреть Online

Детали торрента:
Название:Чудо-женщина / Wonder Woman (2017) WEB-DL [H.264/1080p-LQ] [EN / EN Sub]
Дата добавления:29 Авг 2017 13:37:52
Размер:4,86 GB
Раздают:
Качают:7
Форум:Фильмы в оригинале

All rights reserved © 2015-2019