TORRENTS45.XYZ

Скачать Импровизация / Камеди Клаб / Комеди Клаб / Comedy Club (2017.08.10) WEB-DL [720p-LQ] (сезон 3, выпуск 6)


Импровизация / Камеди Клаб / Комеди Клаб / Comedy Club (2017.08.10) WEB-DL [720p-LQ] (сезон 3, выпуск 6)
Телекомпания: ТНТ
Жанр: Юмор
Ведущий: Павел Воля

Описание:
«Импровизация» — это новое непредсказуемое комедийное шоу от Comedy Club Production. В нём нет сценария и всё, происходящее на сцене, придумывается участниками на ходу. Под управлением ведущего Павла Воли четыре комика и один звездный гость оказываются в самых странных ситуациях — и выбираются из них с юмором. Прежде, чем попасть на экран, четыре участника «Импровизации» (Арсений Попов, Дима Позов, Сергей Матвиенко и Антон Шастун) несколько лет совершенствовали этот формат на клубных вечеринках.
Каждый выпуск шоу разбит на части, в которых действуют свои правила: например, в одной комики должны разговаривать только вопросами, в другой — ходят с завязанными глазами по комнате с мышеловками, в третьей — шутят с электрошокерами на руках, которые бьют их током. В каждом шоу к комикам присоединяется приглашенная звезда. Только в «Импровизации» можно заставить певицу Сати Казанову выслушивать, как комики дают интервью от её лица, Ольгу Бузову — подавать реплики, как суфлер, а Мигеля угадывать, кем он был в прошлой жизни. «Импровизация» — шоу для тех, кому надоел предсказуемый юмор и кто хочет посмотреть, каково комикам на сцене без сценария и заготовленных шуток.
«Комедия импровизации — весьма распространенный формат в Европе, в Америке. В каждом вузе, в каждой школе есть импровизационная команда. При этом это традиционный жанр, он уходит корнями в итальянский театр масок», — говорит креативный продюсер шоу Стас Шеминов. Импровизация — вершина комедийного спорта, уважаемый жанр, которым мечтаю заниматься многие комики, но который требует постоянной практики. Участники «Импровизации» посвятили этому жанру несколько лет — и стали настоящими мастерами.

Релиз от: svlesin
Продолжительность: ~ 00:45:47
Качество видео: WEB-DL
Субтитры: Отсутствуют

Видео: MPEG4, XviD, 1280x720 (16:9), 25.000 fps, 3 432 Kbps (0.149 bit/pixel)
Аудио: AC-3, 44.1 KHz, 2 ch, 192 Kbps, CBR

Mediainfo:

Код: выделить все
 Общее
Уникальный идентификатор                 : 226002205902295889507186013187460779483 (0xAA06710BAE3499BC91D4C727FDCF4DDB)
Полное имя                               : D:\[1]\Импровизация\Импровизация. Сезон 3. Выпуск 06 (2017.08.10)_720.mkv
Формат                                   : Matroska
Версия формата                           : Version 4 / Version 2
Размер файла                             : 1,18 Гбайт
Продолжительность                        : 45 м.
Общий поток                              : 3697 Кбит/сек
Название фильма                          : Импровизация. Сезон 3. Выпуск 06 (2017.08.10)_720_torrents45.xyz
Дата кодирования                         : UTC 2017-08-11 06:54:19
Программа кодирования                    : mkvmerge v9.5.0 ('Quiet Fire') 64bit
Библиотека кодирования                   : libebml v1.3.4 + libmatroska v1.4.5
DURATION                                 : 00:45:47.455000000
NUMBER_OF_FRAMES                         : 78882
NUMBER_OF_BYTES                          : 65938912
_STATISTICS_WRITING_APP                  : mkvmerge v9.5.0 ('Quiet Fire') 64bit
_STATISTICS_WRITING_DATE_UTC             : 2017-08-11 06:54:19
_STATISTICS_TAGS                         : BPS DURATION NUMBER_OF_FRAMES NUMBER_OF_BYTES

Видео
Идентификатор                            : 1
Формат                                   : MPEG-4 Visual
Профиль формата                          : Advanced Simple@L5
Параметр BVOP формата                    : 1
Параметр QPel формата                    : Нет
Параметр GMC формата                     : Без точки перехода
Параметр матрицы формата                 : Default (H.263)
Идентификатор кодека                     : V_MS/VFW/FOURCC / XVID
Идентификатор кодека/Подсказка           : XviD
Продолжительность                        : 45 м.
Битрейт                                  : 3432 Кбит/сек
Ширина                                   : 1280 пикселей
Высота                                   : 720 пикселей
Соотношение сторон                       : 16:9
Режим частоты кадров                     : Постоянный
Частота кадров                           : 25,000 кадров/сек
Цветовое пространство                    : YUV
Субдискретизация насыщенности            : 4:2:0
Битовая глубина                          : 8 бит
Тип развёртки                            : Прогрессивная
Метод сжатия                             : С потерями
Бит/(Пиксели*Кадры)                      : 0.149
Размер потока                            : 1,10 Гбайт (93%)
Библиотека кодирования                   : XviD 67
Default                                  : Да
Forced                                   : Нет

Аудио
Идентификатор                            : 2
Формат                                   : AC-3
Формат/Информация                        : Audio Coding 3
Расширение режима                        : CM (complete main)
Параметр Endianness формата              : Big
Идентификатор кодека                     : A_AC3
Продолжительность                        : 45 м.
Вид битрейта                             : Постоянный
Битрейт                                  : 192 Кбит/сек
Каналы                                   : 2 канала
Расположение каналов                     : Front: L R
Частота                                  : 44,1 КГц
Битовая глубина                          : 16 бит
Метод сжатия                             : С потерями
Размер потока                            : 62,9 Мбайт (5%)
Default                                  : Да
Forced                                   : Нет
 
Скриншоты:



Все одноименные релизы в Клубе

Смотреть Online

http://moonwalk.cc/serial/e57073f71c29bd67b780a7d082e4498a/iframe
Детали торрента:
Название:Импровизация / Камеди Клаб / Комеди Клаб / Comedy Club (2017.08.10) WEB-DL [720p-LQ] (сезон 3, выпуск 6)
Дата добавления:11 Авг 2017 10:08:15
Размер:1,18 GB
Раздают:
Качают:0
Форум:ПостКВН

All rights reserved © 2015-2018