TORRENTS45.XYZ

Скачать Пока цветёт папоротник (2012) HDTVRip [H.264/720p-LQ] (сезон 1, серии 1-13 из 13)


Пока цветёт папоротник (2012) HDTVRip [H.264/720p-LQ] (сезон 1, серии 1-13 из 13)
Производство: Россия / «ИВД PRODUCTION»
Жанр: фэнтези, комедия, приключения

Режиссер: Евгений Бедарев
Актеры: Александр Петров, Татьяна Орлова, Павел Крайнов, Роман Курцын, Светлана Суханова, Алла Подчуфарова, Алексей Васильев, Юлия Самойленко, Елена Николаева, Сергей Майоров и др.

Описание:
Всего несколько дней остается до ночи на Ивана Купалу. В эту ночь зацветет волшебный папоротник, цветок которого позволяет видеть клады под землей, читать мысли людей и повелевать духами… Всего несколько секунд понадобилось столичному журналисту Кириллу, чтобы оказаться на Алтае. Провалившись в открытый люк в центре Москвы, он вынырнул из колодца в глухой алтайской деревне.


Возраст: 16+ (зрителям, достигшим 16 лет)

Продолжительность: ~ 00:48:00 серия
Качество видео: HDTVRip

Видео: AVC/H.264, 1280х720 (16:9), ~3500 Kbps
Аудио: AC3, 2 ch, 192 Kbps

Mediainfo:


Общее
Уникальный идентификатор : 218782319667514452988124828261767943834 (0xA497F12BD40AEB569B47003B1B0B969A)
Полное имя : D:\СЕРИАЛЫ\ПОКА ЦВЕТЕТ ПАПОРОТНИК\Poka.cvetet.paporotnik.2012.HDTVRip.(720p).Nikolspup\Poka.cvetet.paporotnik.(01.seriya.iz.13).2012.HDTVRip.(720p).Nikolspup.mkv
Формат : Matroska
Версия формата : Version 2
Размер файла : 1,22 Гбайт
Продолжительность : 47 м. 28 с.
Общий поток : 3693 Кбит/сек
Дата кодирования : UTC 2016-07-28 12:58:00
Программа кодирования : mkvmerge v7.8.0 ('River Man') 32bit built on Apr 3 2015 12:11:22
Библиотека кодирования : libebml v1.3.1 + libmatroska v1.4.2

Видео
Идентификатор : 1
Формат : AVC
Формат/Информация : Advanced Video Codec
Профиль формата : High@L4.1
Параметр CABAC формата : Да
Параметр ReFrames формата : 9 кадров
Идентификатор кодека : V_MPEG4/ISO/AVC
Продолжительность : 47 м. 28 с.
Битрейт : 3500 Кбит/сек
Ширина : 1280 пикселей
Высота : 720 пикселей
Соотношение сторон : 16:9
Режим частоты кадров : Постоянный
Частота кадров : 25,000 кадров/сек
Цветовое пространство : YUV
Субдискретизация насыщенности : 4:2:0
Битовая глубина : 8 бит
Тип развёртки : Прогрессивная
Бит/(Пиксели*Кадры) : 0.152
Размер потока : 1,14 Гбайт (93%)
Библиотека кодирования : x264 core 146 r2538 121396c
Настройки программы : cabac=1 / ref=9 / deblock=1:-3:-3 / analyse=0x3:0x113 / me=umh / subme=11 / psy=1 / psy_rd=1.00:0.20 / mixed_ref=1 / me_range=32 / chroma_me=1 / trellis=2 / 8x8dct=1 / cqm=0 / deadzone=21,11 / fast_pskip=0 / chroma_qp_offset=-3 / threads=4 / lookahead_threads=1 / sliced_threads=0 / nr=0 / decimate=0 / interlaced=0 / bluray_compat=0 / constrained_intra=0 / bframes=12 / b_pyramid=2 / b_adapt=2 / b_bias=0 / direct=3 / weightb=1 / open_gop=0 / weightp=2 / keyint=250 / keyint_min=25 / scenecut=40 / intra_refresh=0 / rc_lookahead=60 / rc=2pass / mbtree=0 / bitrate=3500 / ratetol=1.0 / qcomp=0.60 / qpmin=0 / qpmax=69 / qpstep=4 / cplxblur=20.0 / qblur=0.5 / vbv_maxrate=14000 / vbv_bufsize=14000 / nal_hrd=none / filler=0 / ip_ratio=1.40 / pb_ratio=1.30 / aq=3:0.80
Default : Да
Forced : Нет
Цветовой диапазон : Limited
Основные цвета : BT.709
Характеристики трансфера : BT.709
Коэффициенты матрицы : BT.709

Аудио
Идентификатор : 2
Формат : AC-3
Формат/Информация : Audio Coding 3
Параметр Endianness формата : Big
Идентификатор кодека : A_AC3
Продолжительность : 47 м. 28 с.
Вид битрейта : Постоянный
Битрейт : 192 Кбит/сек
Каналы : 2 канала
Расположение каналов : Front: L R
Частота : 48,0 КГц
Частота кадров : 31,250 кадров/сек (1536 spf)
Битовая глубина : 16 бит
Метод сжатия : С потерями
Размер потока : 65,2 Мбайт (5%)
ServiceKind/String : Complete Main
Default : Да
Forced : Нет
Скриншоты:


Все одноименные релизы в Клубе

Смотреть Online

http://moonwalk.cc/serial/b0a587d4bc12944c1c9c20d5ed9dd1bc/iframe
Детали торрента:
Название:Пока цветёт папоротник (2012) HDTVRip [H.264/720p-LQ] (сезон 1, серии 1-13 из 13)
Дата добавления:17 Июл 2017 21:22:55
Размер:16 GB
Раздают:5
Качают:0
Форум:Отечественные сериалы

All rights reserved © 2015-2018