TORRENTS45.XYZ

Скачать Охотник за оружием / The Weapon Hunter (2016) HDTVRip [H.264/720p-LQ] (2 сезон: 6 серий из 6)


Охотник за оружием / The Weapon Hunter (2016) HDTVRip [H.264/720p-LQ] (2 сезон: 6 серий из 6)
Производство: Канада, Collector Films lnc, Cream Productions
Жанр: Документальный, вооружение, история

Ведущий: Пол Шулл

Описание:
Знакомьтесь, это Пол Шулл, рок-промоутер, эксперт по фехтованию, а также ведущий передачи. Вместе с командой экспертов он годами ищет интересные образцы оружия. Особенно ему нравятся коллекционные экземпляры Северной Америки. Вы увидите всё: от пушек Гражданской войны и снайперских винтовок Второй мировой до реконструированных танков и самолетов. Пол и его эксперты ни перед чем не остановятся. Вместе они оживляют военные реликвии последних 150 лет и готовятся к бою, чтобы почувствовать влияние этого оружия и узнать, как оно революционизировало войны.



Релиз от: alf62
Продолжительность: 6 x ~ 00:44:12
Качество видео: HDTVRip
Перевод: Одноголосый закадровый, профессиональный

Видео: AVC/H.264, 1280х720, ~3500 Kbps
Аудио: AC3, 2 ch, 192 Kbps

Список выпусков/серий

1. Вьетнамский дорожный воин / Vietnam Road Warrior
Гантрак- вьетнамский воин дорог. Полу предстоит восстановить редкую машину времен войны во Вьетнаме, известную как пулеметный грузовик. Его использовали для охраны конвоев с боеприпасами, топливом и продуктами для американских войск.

2. Большой плохой В-25 / Big Bad B-25
Пол должен найти бомбовый прицел «Норден» для бомбардировщика В-25 времен Второй мировой войны, который восстанавливает Мемориал ВВС США

3. Расплата за Перл-Харбор / Pearl Harbor Payback
Пол пытается восстановить орудие, которое помогло Америке превратить катастрофу в Перл-Харборе в победу: 20-мм зенитную автоматическую пушку «Эрликон» («Oerlikon»).

4. Самое скорострельное оружие в мире / Worlds Fastest Weapon
Пол хочет найти запчасти и восстановить пулемет «миниган» времен Вьетнамской войны, самое скорострельное оружие из всех существующих.

5. Детонатор дня «Д» / D-Day Detonator
В этом выпуске Пол занялся реконструкцией всего дня «Д», сосредоточившись на ключевых элементах: воздушной высадке, бомбардировке с моря, танковом штурме и массированной пехотной атаке.

6. Странное оружие с Иводзимы / Iwo Jima Franken Gun
Пытаясь воссоздать уникальный пулемет времен Второй мировой войны «Стингер» («Stinger»), Пол отправляется в канадский Музей исторического оружия в Онтарио. Директор музея Фил О'Делл помогает ему сделать это.
Этот самодельный пулемет увидел свет благодаря морским пехотинцам из Пятой дивизии корпуса морской пехоты США. Их было произведено всего шесть экземпляров, но до наших дней не сохранилось ни одного.

Mediainfo:


Охотник.за.оружием.(2.сезон).2016.AVC.720p.x264.HDTVRip.alf62\SE2.Ep1.Вьетнамский.дорожный.воин.2016.AVC.720p.x264.HDTVRip.alf62.mkv
Формат : Matroska
Версия формата : Version 2
Размер файла : 1,14 Гбайт
Продолжительность : 44 м.
Общий поток : 3694 Кбит/сек
Дата кодирования : UTC 2017-07-05 12:07:18
Программа кодирования : mkvmerge v7.8.0 ('River Man') 32bit built on Apr 3 2015 12:11:22
Библиотека кодирования : libebml v1.3.1 + libmatroska v1.4.2

Видео
Идентификатор : 1
Формат : AVC
Формат/Информация : Advanced Video Codec
Профиль формата : High@L4.1
Параметр CABAC формата : Да
Параметр ReFrames формата : 16 кадров
Идентификатор кодека : V_MPEG4/ISO/AVC
Продолжительность : 44 м.
Битрейт : 3500 Кбит/сек
Ширина : 1280 пикселей
Высота : 720 пикселей
Соотношение сторон : 16:9
Режим частоты кадров : Постоянный
Частота кадров : 25,000 кадров/сек
Цветовое пространство : YUV
Субдискретизация насыщенности : 4:2:0
Битовая глубина : 8 бит
Тип развёртки : Прогрессивная
Бит/(Пиксели*Кадры) : 0.152
Размер потока : 1,06 Гбайт (93%)
Библиотека кодирования : x264 core 146 r2538 121396c
Настройки программы : cabac=1 / ref=16 / deblock=1:-1:-1 / analyse=0x3:0x113 / me=umh / subme=10 / psy=1 / psy_rd=1.00:0.00 / mixed_ref=1 / me_range=32 / chroma_me=1 / trellis=2 / 8x8dct=1 / cqm=0 / deadzone=21,11 / fast_pskip=0 / chroma_qp_offset=-2 / threads=6 / lookahead_threads=1 / sliced_threads=0 / nr=0 / decimate=0 / interlaced=0 / bluray_compat=0 / constrained_intra=0 / bframes=8 / b_pyramid=2 / b_adapt=2 / b_bias=0 / direct=3 / weightb=1 / open_gop=0 / weightp=2 / keyint=250 / keyint_min=25 / scenecut=40 / intra_refresh=0 / rc_lookahead=40 / rc=2pass / mbtree=1 / bitrate=3500 / ratetol=1.0 / qcomp=0.60 / qpmin=10 / qpmax=51 / qpstep=4 / cplxblur=20.0 / qblur=0.5 / vbv_maxrate=14000 / vbv_bufsize=14000 / nal_hrd=none / filler=0 / ip_ratio=1.40 / aq=1:0.80
Default : Да
Forced : Нет

Аудио
Идентификатор : 2
Формат : AC-3
Формат/Информация : Audio Coding 3
Расширение режима : CM (complete main)
Параметр Endianness формата : Big
Идентификатор кодека : A_AC3
Продолжительность : 44 м.
Вид битрейта : Постоянный
Битрейт : 192 Кбит/сек
Каналы : 2 канала
Расположение каналов : Front: L R
Частота : 48,0 КГц
Битовая глубина : 16 бит
Метод сжатия : С потерями
Размер потока : 60,7 Мбайт (5%)
Default : Да
Forced : Нет
Скриншоты:

Дополнительные скриншоты:





Все одноименные релизы в Клубе

Смотреть Online

Детали торрента:
Название:Охотник за оружием / The Weapon Hunter (2016) HDTVRip [H.264/720p-LQ] (2 сезон: 6 серий из 6)
Дата добавления:26 Сен 2017 02:21:39
Размер:6,84 GB
Раздают:
Качают:0
Форум:Военное дело

All rights reserved © 2015-2019